<?xml version="1.0" standalone="no"?>
<!DOCTYPE svg PUBLIC "-//W3C//DTD SVG 1.1//EN" "http://www.w3.org/Graphics/SVG/1.1/DTD/svg11.dtd" >
<svg xmlns="http://www.w3.org/2000/svg">
<metadata>Generated by IcoMoon</metadata>
<defs>
<font id="icomoon" horiz-adv-x="1024">
<font-face units-per-em="1024" ascent="960" descent="-64" />
<missing-glyph horiz-adv-x="1024" />
<glyph unicode="&#x20;" horiz-adv-x="512" d="" />
<glyph unicode="&#xe900;" glyph-name="ic-accept" d="M0 464c0 273.94 222.060 496 496 496s496-222.060 496-496c0-273.939-222.061-496-496-496s-496 222.061-496 496zM496 832c-203.247 0-368-164.753-368-368 0-203.245 164.753-368 368-368 203.245 0 368 164.755 368 368 0 203.247-164.755 368-368 368zM670.957 595.66c24.992-24.994 24.992-65.516 0-90.509l-172.802-172.8c-24.994-24.991-65.516-24.991-90.509 0l-86.4 86.4c-24.994 24.993-24.994 65.516 0 90.509s65.516 24.993 90.509 0l41.145-41.145 127.546 127.545c24.993 24.993 65.513 24.993 90.511 0z" />
<glyph unicode="&#xe901;" d="M64 448c0 247.424 200.576 448 448 448s448-200.576 448-448c0-247.424-200.576-448-448-448s-448 200.576-448 448z" />
<glyph unicode="&#xe902;" d="M633.581 480c17.674 0 32-14.326 32-32s-14.326-32-32-32h-89.549v-89.6c0-17.674-14.326-32-32-32s-32 14.326-32 32v89.6h-89.651c-17.674 0-32 14.326-32 32s14.326 32 32 32h89.651v89.6c0 17.674 14.326 32 32 32s32-14.326 32-32v-89.6h89.549z" />
<glyph unicode="&#xe903;" glyph-name="ic-add-outline" d="M512 64c212.077 0 384 171.923 384 384s-171.923 384-384 384c-212.077 0-384-171.923-384-384s171.923-384 384-384zM64 448c0 247.424 200.576 448 448 448s448-200.576 448-448c0-247.424-200.576-448-448-448s-448 200.576-448 448zM512.765 286.128c17.667-0.563 31.994 13.309 32.003 30.979l0.054 101.427 101.552 0.054c17.674 0.010 31.546 14.339 30.982 32.003s-15.344 31.974-33.018 31.965l-99.485-0.051 0.058 104.176c0.010 17.674-14.304 32.458-31.968 33.018-17.664 0.563-31.99-13.309-32-30.982l-0.058-106.246-106.122-0.058c-17.674-0.010-31.542-14.336-30.982-32 0.563-17.664 15.347-31.978 33.021-31.968l104.051 0.058-0.054-99.357c-0.010-17.674 14.301-32.458 31.965-33.018z" />
<glyph unicode="&#xe904;" glyph-name="ic-add" d="M479.718 221.786c0-17.67 14.33-32 32.003-32.003 17.674 0 31.997 14.323 31.997 31.997l-0.019 193.917 193.958-0.019c17.674-0.003 32 14.323 31.997 31.997 0 17.67-14.33 32-32.003 32.003l-193.958 0.019-0.022 194.462c0 17.673-14.33 32.002-32.003 32.004s-31.997-14.324-31.997-31.997l0.022-194.462-194.419 0.019c-17.673 0.003-31.998-14.323-31.997-31.997 0.002-17.67 14.33-32 32.004-32.003l194.418-0.019 0.019-193.917z" />
<glyph unicode="&#xe905;" glyph-name="ic-agent1" d="M722.24 363.52l-114.24 16.32v36.16c19.872 14.902 36 34.23 47.107 56.445 11.11 22.218 16.893 46.717 16.893 71.555v128h-64v-128c0-25.459-10.115-49.878-28.118-67.882s-42.422-28.118-67.882-28.118c-25.459 0-49.878 10.115-67.882 28.118s-28.118 42.422-28.118 67.882v128h-64v-128c0-24.838 5.782-49.338 16.893-71.555 11.107-22.214 27.235-41.542 47.107-56.445v-37.12l-114.24-16.32c-30.315-4.365-58.060-19.453-78.2-42.528s-31.337-52.605-31.56-83.232v-140.8h640v64h-576v76.8c-0.153 15.53 5.347 30.586 15.473 42.362 10.127 11.773 24.189 19.466 39.567 21.638l81.92 11.52 119.040-60.16 119.040 59.52 81.92-11.52c15.379-2.173 29.44-9.866 39.568-21.638 10.125-11.776 15.626-26.832 15.472-42.362v-76.16h64v76.8c0.006 30.794-11.088 60.554-31.248 83.83-20.16 23.274-48.035 38.502-78.512 42.89zM544 339.84l-32-16-32 16v47.36c21.13-4.157 42.87-4.157 64 0v-47.36zM736 800h-288c-25.459 0-49.878-10.114-67.882-28.118s-28.118-42.421-28.118-67.882v-64h288c25.459 0 49.878 10.114 67.882 28.118s28.118 42.421 28.118 67.882v64z" />
<glyph unicode="&#xe906;" d="M576 672h-128v-64h128v64z" />
<glyph unicode="&#xe907;" d="M576 544h-128v-64h128v64z" />
<glyph unicode="&#xe908;" d="M576 416h-128v-64h128v64z" />
<glyph unicode="&#xe909;" d="M576 288h-128v-64h128v64z" />
<glyph unicode="&#xe90a;" d="M832 160v344.96l-128 32v263.040h-320v-192h-160v-448h-64v-64h704v64h-32zM384 160h-96v384h96v-384zM640 160h-192v576h192v-576zM768 160h-64v311.040l64-16v-295.040z" />
<glyph unicode="&#xe90b;" d="M217.92 307.2c-5.454 7.107-8.81 15.6-9.689 24.515s0.756 17.901 4.718 25.936c3.962 8.035 10.094 14.8 17.703 19.533 7.608 4.73 16.388 7.238 25.348 7.238s17.74-2.509 25.348-7.238c7.608-4.733 13.74-11.498 17.703-19.533s5.597-17.021 4.718-25.936c-0.878-8.915-4.235-17.408-9.689-24.515 10.823-8.013 18.844-19.235 22.919-32.070s3.999-26.627-0.22-39.418c-4.219-12.787-12.364-23.92-23.276-31.811s-24.036-12.141-37.502-12.141c-13.467 0-26.59 4.25-37.502 12.141s-19.058 19.024-23.276 31.811c-4.219 12.79-4.296 26.582-0.22 39.418s12.096 24.058 22.919 32.070z" />
<glyph unicode="&#xe90c;" d="M576 672h-128v-64h128v64z" />
<glyph unicode="&#xe90d;" d="M576 544h-128v-64h128v64z" />
<glyph unicode="&#xe90e;" d="M576 416h-128v-64h128v64z" />
<glyph unicode="&#xe90f;" d="M576 288h-128v-64h128v64z" />
<glyph unicode="&#xe910;" d="M832 160v344.96l-128 32v263.040h-320v-192h-160v-448h-64v-64h704v64h-32zM384 160h-96v384h96v-384zM640 160h-192v576h192v-576zM768 160h-64v311.040l64-16v-295.040z" />
<glyph unicode="&#xe911;" d="M217.92 307.2c-5.454 7.107-8.81 15.6-9.689 24.515s0.756 17.901 4.718 25.936c3.962 8.035 10.094 14.8 17.703 19.533 7.608 4.73 16.388 7.238 25.348 7.238s17.74-2.509 25.348-7.238c7.608-4.733 13.74-11.498 17.703-19.533s5.597-17.021 4.718-25.936c-0.878-8.915-4.235-17.408-9.689-24.515 10.823-8.013 18.844-19.235 22.919-32.070s3.999-26.627-0.22-39.418c-4.219-12.787-12.364-23.92-23.276-31.811s-24.036-12.141-37.502-12.141c-13.467 0-26.59 4.25-37.502 12.141s-19.058 19.024-23.276 31.811c-4.219 12.79-4.296 26.582-0.22 39.418s12.096 24.058 22.919 32.070z" />
<glyph unicode="&#xe912;" glyph-name="ic-appartment" d="M576 672h-128v-64h128v64zM576 544h-128v-64h128v64zM576 416h-128v-64h128v64zM576 288h-128v-64h128v64zM832 160v344.96l-128 32v263.040h-320v-192h-160v-448h-64v-64h704v64h-32zM384 160h-96v384h96v-384zM640 160h-192v576h192v-576zM768 160h-64v311.040l64-16v-295.040zM217.92 307.2c-5.454 7.107-8.81 15.6-9.689 24.515s0.756 17.901 4.718 25.936c3.962 8.035 10.094 14.8 17.703 19.533 7.608 4.73 16.388 7.238 25.348 7.238s17.74-2.509 25.348-7.238c7.608-4.733 13.74-11.498 17.703-19.533s5.597-17.021 4.718-25.936c-0.878-8.915-4.235-17.408-9.689-24.515 10.823-8.013 18.844-19.235 22.919-32.070s3.999-26.627-0.22-39.418c-4.219-12.787-12.364-23.92-23.276-31.811s-24.036-12.141-37.502-12.141c-13.467 0-26.59 4.25-37.502 12.141s-19.058 19.024-23.276 31.811c-4.219 12.79-4.296 26.582-0.22 39.418s12.096 24.058 22.919 32.070z" />
<glyph unicode="&#xe913;" glyph-name="ic-archive" d="M736 704c35.347 0 64-28.654 64-64v-139.069h-576v139.069c0 35.346 28.654 64 64 64h448zM224 256v180.931h576v-180.931c0-35.347-28.653-64-64-64h-448c-35.346 0-64 28.653-64 64zM288 768c-70.692 0-128-57.308-128-128v-384c0-70.691 57.308-128 128-128h448c70.691 0 128 57.309 128 128v384c0 70.692-57.309 128-128 128h-448zM431.37 620.048h161.28c17.674 0 32-14.326 32-32s-14.326-32-32-32h-161.28c-17.674 0-32 14.326-32 32s14.326 32 32 32z" />
<glyph unicode="&#xe914;" glyph-name="ic-back" horiz-adv-x="614" d="M102.398 525.554c37.704 0 68.267-30.563 68.267-68.267s-30.563-68.267-68.267-68.267v136.533zM19.994 409.016c-26.658 26.658-26.658 69.885 0 96.543l434.449 434.447c26.658 26.659 69.878 26.659 96.543 0 26.658-26.66 26.658-69.884 0-96.541l-386.178-386.178 386.178-386.18c26.658-26.658 26.658-69.878 0-96.543-26.665-26.658-69.885-26.658-96.543 0l-434.449 434.452zM102.398 389.020h-34.133v136.533h34.133v-136.533z" />
<glyph unicode="&#xe915;" d="M521.6 448l-96 64h-105.6v160c0 16.974 6.742 33.252 18.746 45.255s28.282 18.745 45.254 18.745c16.973 0 33.251-6.743 45.254-18.745s18.746-28.281 18.746-45.255h64c0 33.948-13.485 66.505-37.491 90.51-24.003 24.004-56.56 37.49-90.509 37.49s-66.505-13.486-90.51-37.49c-24.004-24.005-37.49-56.562-37.49-90.51v-160h-96v-64h32v-160c0.065-25.619 7.815-50.627 22.249-71.792s34.886-37.514 58.711-46.928l-16.96-33.6v-39.68h64c0 32-4.16 15.68 19.84 64h344.32c23.68-47.68 19.84-32 19.84-64h64v39.68l-16.96 33.6c23.827 9.414 44.278 25.763 58.71 46.928 14.435 21.165 22.186 46.173 22.25 71.792v96h32v64h-342.4zM768 288c0-16.973-6.742-33.251-18.746-45.254s-28.282-18.746-45.254-18.746h-384c-16.974 0-33.252 6.742-45.255 18.746s-18.745 28.282-18.745 45.254v160h150.4l96-64h265.6v-96z" />
<glyph unicode="&#xe916;" d="M448 672h64c8.486 0 16.627-3.372 22.627-9.372s9.373-14.14 9.373-22.628v-32h-128v32c0 8.487 3.373 16.626 9.373 22.628s14.141 9.372 22.627 9.372z" />
<glyph unicode="&#xe917;" d="M521.6 448l-96 64h-105.6v160c0 16.974 6.742 33.252 18.746 45.255s28.282 18.745 45.254 18.745c16.973 0 33.251-6.743 45.254-18.745s18.746-28.281 18.746-45.255h64c0 33.948-13.485 66.505-37.491 90.51-24.003 24.004-56.56 37.49-90.509 37.49s-66.505-13.486-90.51-37.49c-24.004-24.005-37.49-56.562-37.49-90.51v-160h-96v-64h32v-160c0.065-25.619 7.815-50.627 22.249-71.792s34.886-37.514 58.711-46.928l-16.96-33.6v-39.68h64c0 32-4.16 15.68 19.84 64h344.32c23.68-47.68 19.84-32 19.84-64h64v39.68l-16.96 33.6c23.827 9.414 44.278 25.763 58.71 46.928 14.435 21.165 22.186 46.173 22.25 71.792v96h32v64h-342.4zM768 288c0-16.973-6.742-33.251-18.746-45.254s-28.282-18.746-45.254-18.746h-384c-16.974 0-33.252 6.742-45.255 18.746s-18.745 28.282-18.745 45.254v160h150.4l96-64h265.6v-96z" />
<glyph unicode="&#xe918;" d="M448 672h64c8.486 0 16.627-3.372 22.627-9.372s9.373-14.14 9.373-22.628v-32h-128v32c0 8.487 3.373 16.626 9.373 22.628s14.141 9.372 22.627 9.372z" />
<glyph unicode="&#xe919;" glyph-name="ic-bath" d="M521.6 448l-96 64h-105.6v160c0 16.974 6.742 33.252 18.746 45.255s28.282 18.745 45.254 18.745c16.973 0 33.251-6.743 45.254-18.745s18.746-28.281 18.746-45.255h64c0 33.948-13.485 66.505-37.491 90.51-24.003 24.004-56.56 37.49-90.509 37.49s-66.505-13.486-90.51-37.49c-24.004-24.005-37.49-56.562-37.49-90.51v-160h-96v-64h32v-160c0.065-25.619 7.815-50.627 22.249-71.792s34.886-37.514 58.711-46.928l-16.96-33.6v-39.68h64c0 32-4.16 15.68 19.84 64h344.32c23.68-47.68 19.84-32 19.84-64h64v39.68l-16.96 33.6c23.827 9.414 44.278 25.763 58.71 46.928 14.435 21.165 22.186 46.173 22.25 71.792v96h32v64h-342.4zM768 288c0-16.973-6.742-33.251-18.746-45.254s-28.282-18.746-45.254-18.746h-384c-16.974 0-33.252 6.742-45.255 18.746s-18.745 28.282-18.745 45.254v160h150.4l96-64h265.6v-96zM448 672h64c8.486 0 16.627-3.372 22.627-9.372s9.373-14.14 9.373-22.628v-32h-128v32c0 8.487 3.373 16.626 9.373 22.628s14.141 9.372 22.627 9.372z" />
<glyph unicode="&#xe91a;" d="M864 384c-0.054 19.805-6.237 39.11-17.693 55.267-11.459 16.154-27.635 28.371-46.307 34.973v197.76h-576v-197.76c-18.674-6.602-34.848-18.819-46.306-34.973-11.458-16.157-17.638-35.462-17.694-55.267v-160h64v-64h64v64h448v-64h64v64h64v160zM288 608h448v-128h-448v128zM800 288h-576v96c0 8.486 3.372 16.627 9.372 22.627s14.14 9.373 22.628 9.373h512c8.486 0 16.627-3.373 22.627-9.373s9.373-14.141 9.373-22.627v-96z" />
<glyph unicode="&#xe91b;" d="M384 544h64c8.486 0 16.627-3.373 22.627-9.373s9.373-14.141 9.373-22.627v-32h-128v32c0 8.486 3.373 16.627 9.373 22.627s14.141 9.373 22.627 9.373z" />
<glyph unicode="&#xe91c;" d="M576 544h64c8.486 0 16.627-3.373 22.627-9.373s9.373-14.141 9.373-22.627v-32h-128v32c0 8.486 3.373 16.627 9.373 22.627s14.141 9.373 22.627 9.373v0z" />
<glyph unicode="&#xe91d;" d="M288 736h-64v-64h64v64z" />
<glyph unicode="&#xe91e;" d="M800 736h-64v-64h64v64z" />
<glyph unicode="&#xe91f;" d="M864 384c-0.054 19.805-6.237 39.11-17.693 55.267-11.459 16.154-27.635 28.371-46.307 34.973v197.76h-576v-197.76c-18.674-6.602-34.848-18.819-46.306-34.973-11.458-16.157-17.638-35.462-17.694-55.267v-160h64v-64h64v64h448v-64h64v64h64v160zM288 608h448v-128h-448v128zM800 288h-576v96c0 8.486 3.372 16.627 9.372 22.627s14.14 9.373 22.628 9.373h512c8.486 0 16.627-3.373 22.627-9.373s9.373-14.141 9.373-22.627v-96z" />
<glyph unicode="&#xe920;" d="M384 544h64c8.486 0 16.627-3.373 22.627-9.373s9.373-14.141 9.373-22.627v-32h-128v32c0 8.486 3.373 16.627 9.373 22.627s14.141 9.373 22.627 9.373z" />
<glyph unicode="&#xe921;" d="M576 544h64c8.486 0 16.627-3.373 22.627-9.373s9.373-14.141 9.373-22.627v-32h-128v32c0 8.486 3.373 16.627 9.373 22.627s14.141 9.373 22.627 9.373v0z" />
<glyph unicode="&#xe922;" d="M288 736h-64v-64h64v64z" />
<glyph unicode="&#xe923;" d="M800 736h-64v-64h64v64z" />
<glyph unicode="&#xe924;" glyph-name="ic-bed" d="M864 384c-0.054 19.805-6.237 39.11-17.693 55.267-11.459 16.154-27.635 28.371-46.307 34.973v197.76h-576v-197.76c-18.674-6.602-34.848-18.819-46.306-34.973-11.458-16.157-17.638-35.462-17.694-55.267v-160h64v-64h64v64h448v-64h64v64h64v160zM288 608h448v-128h-448v128zM800 288h-576v96c0 8.486 3.372 16.627 9.372 22.627s14.14 9.373 22.628 9.373h512c8.486 0 16.627-3.373 22.627-9.373s9.373-14.141 9.373-22.627v-96zM384 544h64c8.486 0 16.627-3.373 22.627-9.373s9.373-14.141 9.373-22.627v-32h-128v32c0 8.486 3.373 16.627 9.373 22.627s14.141 9.373 22.627 9.373zM576 544h64c8.486 0 16.627-3.373 22.627-9.373s9.373-14.141 9.373-22.627v-32h-128v32c0 8.486 3.373 16.627 9.373 22.627s14.141 9.373 22.627 9.373zM288 736h-64v-64h64v64zM800 736h-64v-64h64v64z" />
<glyph unicode="&#xe925;" glyph-name="ic-brn" d="M260.188 436.061h-70.313l-0.375 43.126h57c10.25 0 18.438 1.126 24.563 3.376 6.125 2.374 10.563 5.811 13.313 10.31 2.875 4.502 4.312 10.128 4.312 16.877 0 7.75-1.437 14-4.312 18.749-2.875 4.752-7.437 8.189-13.688 10.314-6.125 2.25-14.062 3.376-23.812 3.376h-32.25v-222.189h-65.812v272.998h98.062c16.875 0 31.938-1.562 45.188-4.685 13.25-3.002 24.5-7.626 33.749-13.875 9.376-6.25 16.502-14.125 21.376-23.626 4.874-9.376 7.312-20.438 7.312-33.187 0-11.126-2.374-21.565-7.123-31.312-4.752-9.75-12.688-17.69-23.814-23.814-10.999-6-26.061-9.123-45.187-9.373l-18.188-17.066zM257.563 320h-83.625l22.5 50.624h61.125c9 0 16.188 1.376 21.563 4.125 5.5 2.877 9.437 6.627 11.812 11.251 2.5 4.749 3.75 10 3.75 15.75 0 6.998-1.187 13.062-3.562 18.189-2.25 5.123-5.875 9.059-10.875 11.811-5 2.874-11.687 4.31-20.062 4.31h-55.313l0.375 43.126h66.188l15.375-17.248c18.25 0.749 32.688-1.814 43.312-7.69 10.749-5.875 18.438-13.626 23.062-23.248 4.624-9.626 6.938-19.69 6.938-30.189 0-17.875-3.875-32.813-11.626-44.813-7.626-12-19.062-20.998-34.312-27.002-15.25-5.997-34.125-8.998-56.625-8.998zM377.488 592.998h107.437c21.002 0 39.251-3.123 54.749-9.373 15.501-6.25 27.44-15.501 35.814-27.75 8.499-12.25 12.749-27.376 12.749-45.376 0-15.626-2.435-28.688-7.312-39.187-4.874-10.499-11.686-19.187-20.438-26.061-8.624-6.752-18.685-12.314-30.186-16.688l-21.565-12.189h-90.186l-0.374 50.813h66.749c8.374 0 15.312 1.501 20.813 4.499 5.501 3.002 9.626 7.251 12.374 12.752 2.877 5.626 4.314 12.31 4.314 20.061 0 7.875-1.437 14.627-4.314 20.25-2.874 5.626-7.123 9.939-12.749 12.938-5.501 3.002-12.314 4.502-20.438 4.502h-41.626v-222.189h-65.811v272.998zM526.925 320l-60.374 120.749 69.75 0.378 61.123-118.314v-2.813h-70.499zM836.787 592.998v-272.998h-65.626l-96.56 169.875v-169.875h-65.814v272.998h65.814l96.56-169.872v169.872h65.626z" />
<glyph unicode="&#xe926;" glyph-name="ic-calendar" d="M369.376 785.922c-17.674 0-32-14.327-32-32v-35.73c-96.911-9.743-172.564-91.552-172.564-191.028v-225.834c0-106.038 85.962-192 192-192h309.632c106.038 0 192 85.962 192 192v225.834c0 99.501-75.69 181.324-172.634 191.035v35.723c0 17.673-14.326 32-32 32-17.67 0-32-14.327-32-32v-34.758h-220.435v34.758c0 17.673-14.326 32-32 32zM621.811 655.164v-35.955c0-17.674 14.33-32 32-32 17.674 0 32 14.326 32 32v34.499c61.504-9.334 108.634-62.435 108.634-126.544v-225.834c0-70.694-57.306-128-128-128h-309.632c-70.693 0-128 57.306-128 128v225.834c0 64.083 47.094 117.169 108.564 126.533v-34.488c0-17.674 14.326-32 32-32s32 14.326 32 32v35.955h220.435zM369.875 513.734v-64c0-17.674 14.326-32 32-32h64c17.674 0 32 14.326 32 32v64c0 17.674-14.326 32-32 32h-64c-17.674 0-32-14.326-32-32zM401.875 385.734h64c17.674 0 32-14.326 32-32v-64c0-17.674-14.326-32-32-32h-64c-17.674 0-32 14.326-32 32v64c0 17.674 14.326 32 32 32zM529.875 353.734v-64c0-17.674 14.326-32 32-32h64c17.674 0 32 14.326 32 32v64c0 17.674-14.326 32-32 32h-64c-17.674 0-32-14.326-32-32zM561.875 545.734h64c17.674 0 32-14.326 32-32v-64c0-17.674-14.326-32-32-32h-64c-17.674 0-32 14.326-32 32v64c0 17.674 14.326 32 32 32z" />
<glyph unicode="&#xe927;" glyph-name="ic-call" d="M781.472 730.513l-22.896-22.357 0.269-0.27 22.627 22.627zM780.262 532.262v0zM443.651 195.651v0zM611.258 737.283v0zM625.098 751.123v0zM760.861 751.123v0zM792.266 718.103v0zM611.258 562.73v0zM257.812 183.651v0zM780.266 731.733v0zM804.368 752.868c-0.486 0.5-0.979 0.997-1.472 1.492l-45.258-45.253c0.317-0.315 0.627-0.631 0.938-0.949l45.792 44.711zM814.938 742.302l-10.838 10.838-45.254-45.255 10.838-10.839 45.254 45.255zM802.89 509.635c62.269 62.269 67.152 160.137 14.698 228.032l-50.646-39.128c33.024-42.743 29.907-104.437-9.306-143.65l45.254-45.254zM466.278 173.024l336.611 336.611-45.254 45.254-336.611-336.611 45.254-45.254zM238.248 158.326c67.896-52.454 165.761-47.571 228.030 14.698l-45.254 45.254c-39.21-39.21-100.906-42.33-143.648-9.306l-39.128-50.646zM278.824 206.23l-31.437 31.437-45.255-45.254 31.437-31.437 45.255 45.254zM247.386 237.667c-24.993 24.992-24.993 65.517 0 90.509l-45.255 45.254c-49.987-49.987-49.987-131.030 0-181.018l45.255 45.254zM247.386 328.176l13.841 13.84-45.255 45.254-13.841-13.84 45.255-45.254zM261.227 342.016c24.994 24.995 65.516 24.995 90.511 0l45.254 45.258c-49.987 49.984-131.033 49.984-181.020-0.003l45.255-45.254zM588.63 585.357l-198.086-198.086 45.254-45.254 198.086 198.086-45.254 45.254zM588.63 759.91c-49.987-49.987-49.987-131.033 0-181.020l45.254 45.254c-24.995 24.995-24.995 65.518 0 90.511l-45.254 45.255zM602.47 773.751l-13.84-13.841 45.254-45.255 13.84 13.84-45.254 45.255zM783.491 773.751c-49.987 49.987-131.034 49.987-181.021 0l45.254-45.255c24.995 24.994 65.517 24.994 90.509 0l45.258 45.255zM802.88 754.361l-19.389 19.39-45.258-45.255 19.392-19.39 45.254 45.255zM769.683 741.491c-11.731-11.732-12.637-30.144-2.742-42.951l50.646 39.128c9.542-12.349 8.675-30.109-2.65-41.432l-45.254 45.255zM757.626 709.106c12.499-12.499 32.762-12.499 45.261 0l-45.254 45.255c12.496 12.495 32.752 12.495 45.248 0l-45.254-45.255zM234.403 206.23c12.266 12.266 32.154 12.266 44.42 0l-45.255-45.254c12.727-12.73 33.362-12.73 46.089 0l-45.255 45.254zM633.885 540.102c23.206 23.21 23.206 60.835 0 84.042l-45.254-45.254c-1.786 1.786-1.786 4.682 0 6.467l45.254-45.254zM769.683 697.047c-12.272 12.273-12.272 32.171 0 44.444l45.254-45.255c12.723 12.721 12.723 33.345 0 46.066l-45.254-45.255zM277.376 208.973c-12.812 9.898-31.234 8.995-42.973-2.742l45.255-45.254c-11.318-11.318-29.069-12.182-41.41-2.65l39.128 50.646zM351.738 342.016c23.213-23.213 60.848-23.213 84.061 0l-45.254 45.254c1.779 1.782 4.666 1.782 6.448 0.003l-45.254-45.258zM802.896 754.36c-12.499 12.499-32.765 12.5-45.264 0.001l45.254-45.255c-12.496-12.495-32.752-12.494-45.248 0.001l45.258 45.253z" />
<glyph unicode="&#xe928;" glyph-name="ic-camera" d="M816 511.085v-152.685c0-53.021-42.979-96-96-96h-432c-53.020 0-96 42.979-96 96v152.685c0 53.021 42.981 96 96 96h8.122c47.759 0 80.86 33.417 93.404 66.733 13.718 36.433 48.877 62.182 89.891 62.182h62.835c42.192 0 78.182-27.257 91.008-65.304 11.027-32.716 42.509-63.612 86.739-63.612 53.021 0 96-42.979 96-96zM720 671.085c-12.064 0-22.24 8.622-26.093 20.054-21.334 63.287-81.171 108.86-151.654 108.86h-62.835c-68.525 0-126.989-43.078-149.786-103.63-5.389-14.309-18.22-25.284-33.51-25.284h-8.122c-88.365 0-160-71.636-160-160.001v-152.685c0-88.365 71.635-160 160-160h432c88.365 0 160 71.635 160 160v152.685c0 88.365-71.635 160.001-160 160.001zM510.835 371.782c-40.166 0-72.726 32.56-72.726 72.726s32.56 72.726 72.726 72.726c40.166 0 72.73-32.56 72.73-72.726s-32.563-72.726-72.73-72.726zM510.835 307.782c75.514 0 136.73 61.213 136.73 136.726s-61.216 136.726-136.73 136.726c-75.51 0-136.726-61.213-136.726-136.726s61.216-136.726 136.726-136.726zM674.909 553.891c15.104 0 27.347 12.243 27.347 27.344 0 15.104-12.243 27.347-27.347 27.347-15.101 0-27.344-12.243-27.344-27.347 0-15.101 12.243-27.344 27.344-27.344z" />
<glyph unicode="&#xe929;" glyph-name="ic-cash" d="M704 480h-512v320h512v-320zM256 544h384v192h-384v-192zM448 576c35.347 0 64 28.653 64 64s-28.653 64-64 64c-35.347 0-64-28.654-64-64s28.653-64 64-64zM256 672v64h64c0-16.974-6.743-33.252-18.745-45.255s-28.281-18.745-45.255-18.745zM448 288v64h64c0-16.973-6.742-33.251-18.746-45.254s-28.282-18.746-45.254-18.746zM640 608v-64h-64c0 16.973 6.742 33.251 18.746 45.254s28.282 18.746 45.254 18.746zM896 96h-512v320h512v-320zM448 160h384v192h-384v-192zM832 224v-64h-64c0 16.973 6.742 33.251 18.746 45.254s28.282 18.746 45.254 18.746zM640 192c35.347 0 64 28.653 64 64s-28.653 64-64 64c-35.347 0-64-28.653-64-64s28.653-64 64-64z" />
<glyph unicode="&#xe92a;" glyph-name="ic-check" d="M790.618 628.166c12.496-12.496 12.496-32.758 0-45.254l-315.075-315.078c-12.499-12.496-32.758-12.496-45.258 0l-157.537 157.539c-12.497 12.496-12.497 32.758 0 45.254 12.497 12.499 32.758 12.499 45.255 0l134.909-134.909 292.451 292.448c12.496 12.497 32.758 12.497 45.254 0z" />
<glyph unicode="&#xe92b;" d="M171.563 656h682.668v64h-682.668v-64zM854.23 240h-682.668v-64h682.668v64zM854.23 656v-416h64v416h-64zM171.563 240v416h-64v-416h64zM854.23 176c35.344 0 64 28.653 64 64h-64v-64zM854.23 656v0h64c0 35.346-28.656 64-64 64v-64zM171.563 720c-35.346 0-64-28.654-64-64h64v64zM171.563 240v0h-64c0-35.347 28.654-64 64-64v64z" />
<glyph unicode="&#xe92c;" d="M256.875 549.44c-17.673 0-32-14.326-32-32s14.327-32 32-32v64zM496 485.44c17.674 0 32 14.326 32 32s-14.326 32-32 32v-64zM256.875 421.44c-17.673 0-32-14.326-32-32s14.327-32 32-32v64zM496 357.44c17.674 0 32 14.326 32 32s-14.326 32-32 32v-64zM256.875 485.44h239.125v64h-239.125v-64zM256.875 357.44h239.125v64h-239.125v-64z" />
<glyph unicode="&#xe92d;" d="M767.99 414.4c0 14.851-5.616 29.094-15.613 39.597-10 10.502-23.558 16.403-37.696 16.403h-21.322c-2.829 0-5.539 1.181-7.539 3.28-2 2.102-3.123 4.95-3.123 7.92s1.123 5.818 3.123 7.92c2 2.099 4.71 3.28 7.539 3.28h74.63v44.8h-42.646v22.4h-42.646v-23.52c-12.954-2.765-24.47-10.486-32.31-21.667s-11.446-25.024-10.118-38.842c1.331-13.818 7.498-26.621 17.309-35.93s22.563-14.454 35.782-14.442h21.322c2.829 0 5.539-1.181 7.539-3.28 2-2.102 3.123-4.95 3.123-7.92s-1.123-5.818-3.123-7.92c-2-2.099-4.71-3.28-7.539-3.28h-74.627v-44.8h42.643v-22.4h42.646v22.4c12.221 2.618 23.184 9.654 30.976 19.888s11.92 23.011 11.67 36.112z" />
<glyph unicode="&#xe92e;" d="M171.563 656h682.668v64h-682.668v-64zM854.23 240h-682.668v-64h682.668v64zM854.23 656v-416h64v416h-64zM171.563 240v416h-64v-416h64zM854.23 176c35.344 0 64 28.653 64 64h-64v-64zM854.23 656v0h64c0 35.346-28.656 64-64 64v-64zM171.563 720c-35.346 0-64-28.654-64-64h64v64zM171.563 240v0h-64c0-35.347 28.654-64 64-64v64z" />
<glyph unicode="&#xe92f;" d="M256.875 549.44c-17.673 0-32-14.326-32-32s14.327-32 32-32v64zM496 485.44c17.674 0 32 14.326 32 32s-14.326 32-32 32v-64zM256.875 421.44c-17.673 0-32-14.326-32-32s14.327-32 32-32v64zM496 357.44c17.674 0 32 14.326 32 32s-14.326 32-32 32v-64zM256.875 485.44h239.125v64h-239.125v-64zM256.875 357.44h239.125v64h-239.125v-64z" />
<glyph unicode="&#xe930;" d="M767.99 414.4c0 14.851-5.616 29.094-15.613 39.597-10 10.502-23.558 16.403-37.696 16.403h-21.322c-2.829 0-5.539 1.181-7.539 3.28-2 2.102-3.123 4.95-3.123 7.92s1.123 5.818 3.123 7.92c2 2.099 4.71 3.28 7.539 3.28h74.63v44.8h-42.646v22.4h-42.646v-23.52c-12.954-2.765-24.47-10.486-32.31-21.667s-11.446-25.024-10.118-38.842c1.331-13.818 7.498-26.621 17.309-35.93s22.563-14.454 35.782-14.442h21.322c2.829 0 5.539-1.181 7.539-3.28 2-2.102 3.123-4.95 3.123-7.92s-1.123-5.818-3.123-7.92c-2-2.099-4.71-3.28-7.539-3.28h-74.627v-44.8h42.643v-22.4h42.646v22.4c12.221 2.618 23.184 9.654 30.976 19.888s11.92 23.011 11.67 36.112z" />
<glyph unicode="&#xe931;" glyph-name="ic-cheque" d="M171.563 656h682.668v64h-682.668v-64zM854.23 240h-682.668v-64h682.668v64zM854.23 656v-416h64v416h-64zM171.563 240v416h-64v-416h64zM854.23 176c35.344 0 64 28.653 64 64h-64v-64zM854.23 656h64c0 35.346-28.656 64-64 64v-64zM171.563 720c-35.346 0-64-28.654-64-64h64v64zM171.563 240v0h-64c0-35.347 28.654-64 64-64v64zM256.875 549.44c-17.673 0-32-14.326-32-32s14.327-32 32-32v64zM496 485.44c17.674 0 32 14.326 32 32s-14.326 32-32 32v-64zM256.875 421.44c-17.673 0-32-14.326-32-32s14.327-32 32-32v64zM496 357.44c17.674 0 32 14.326 32 32s-14.326 32-32 32v-64zM256.875 485.44h239.125v64h-239.125v-64zM256.875 357.44h239.125v64h-239.125v-64zM767.99 414.4c0 14.851-5.616 29.094-15.613 39.597-10 10.502-23.558 16.403-37.696 16.403h-21.322c-2.829 0-5.539 1.181-7.539 3.28-2 2.102-3.123 4.95-3.123 7.92s1.123 5.818 3.123 7.92c2 2.099 4.71 3.28 7.539 3.28h74.63v44.8h-42.646v22.4h-42.646v-23.52c-12.954-2.765-24.47-10.486-32.31-21.667s-11.446-25.024-10.118-38.842c1.331-13.818 7.498-26.621 17.309-35.93s22.563-14.454 35.782-14.442h21.322c2.829 0 5.539-1.181 7.539-3.28 2-2.102 3.123-4.95 3.123-7.92s-1.123-5.818-3.123-7.92c-2-2.099-4.71-3.28-7.539-3.28h-74.627v-44.8h42.643v-22.4h42.646v22.4c12.221 2.618 23.184 9.654 30.976 19.888s11.92 23.011 11.67 36.112z" />
<glyph unicode="&#xe933;" glyph-name="ic-close" d="M327.763 315.453c-12.495-12.499-12.495-32.758 0-45.254 12.499-12.499 32.758-12.499 45.258 0l135.763 135.763 135.763-135.763c12.499-12.499 32.758-12.499 45.254 0 12.499 12.496 12.499 32.755 0 45.254l-135.763 135.763 135.763 135.763c12.499 12.499 12.499 32.758 0 45.258-12.496 12.495-32.755 12.495-45.254 0l-135.763-135.766-135.763 135.766c-12.499 12.495-32.758 12.495-45.258 0-12.495-12.499-12.495-32.758 0-45.258l135.766-135.763-135.766-135.763z" />
<glyph unicode="&#xe934;" d="M688 192h-64v-64h64v64z" />
<glyph unicode="&#xe935;" d="M800 136.726v663.274h-144v64h-68.365v-64h-139.635v-160h-224v-576h576v72.726zM512 736h224v-320h-160v224h-64v96zM512 128h-224v448h224v-448zM736 128h-160v224h160v-224z" />
<glyph unicode="&#xe936;" d="M448 512h64v-64h-64v64z" />
<glyph unicode="&#xe937;" d="M448 320h64v-64h-64v64z" />
<glyph unicode="&#xe938;" d="M288 512h64v-64h-64v64z" />
<glyph unicode="&#xe939;" d="M672 640h64v-64h-64v64z" />
<glyph unicode="&#xe93a;" d="M288 320h64v-64h-64v64z" />
<glyph unicode="&#xe93b;" d="M688 192h-64v-64h64v64z" />
<glyph unicode="&#xe93c;" d="M800 136.726v663.274h-144v64h-68.365v-64h-139.635v-160h-224v-576h576v72.726zM512 736h224v-320h-160v224h-64v96zM512 128h-224v448h224v-448zM736 128h-160v224h160v-224z" />
<glyph unicode="&#xe93d;" d="M448 512h64v-64h-64v64z" />
<glyph unicode="&#xe93e;" d="M448 320h64v-64h-64v64z" />
<glyph unicode="&#xe93f;" d="M288 512h64v-64h-64v64z" />
<glyph unicode="&#xe940;" d="M672 640h64v-64h-64v64z" />
<glyph unicode="&#xe941;" d="M288 320h64v-64h-64v64z" />
<glyph unicode="&#xe942;" glyph-name="ic-commercial" d="M696.726 209.456h-72.726v-72.73h72.726v72.73zM805.818 136.726v654.546h-145.453v72.727h-72.73v-72.727h-145.453v-145.454h-218.182v-581.818h581.818v72.726zM514.909 718.546h218.182v-109.090h-72.726v-72.73h72.726v-109.091h-145.456v218.183h-72.726v72.727zM514.909 136.726h-218.181v145.456h72.729v72.726h-72.729v72.726h72.729v72.73h-72.729v72.726h218.181v-436.365zM733.091 136.726h-145.456v218.182h145.456v-218.182zM442.189 500.365h72.726v-72.73h-72.726v72.73zM442.189 354.909h72.726v-72.726h-72.726v72.726z" />
<glyph unicode="&#xe943;" glyph-name="ic-delete" d="M486.403 699.247c1.866 2.547 5.437 4.753 10.15 4.753s8.282-2.206 10.147-4.753c7.738-10.575 24.614-28.724 50.813-28.724h150.477c2.784 0 4.947-1.048 6.314-2.343 1.338-1.267 1.734-2.53 1.734-3.589s-0.397-2.323-1.734-3.589c-1.366-1.293-3.523-2.34-6.301-2.343-0.006 0-0.010 0-0.013 0h-411.941c-0.004 0-0.009 0-0.013 0-2.78 0.003-4.936 1.050-6.301 2.343-1.337 1.267-1.735 2.53-1.735 3.589s0.398 2.323 1.735 3.589c1.367 1.295 3.528 2.343 6.314 2.343h139.541c26.202 0 43.075 18.148 50.813 28.724zM250.532 610.4c-15.967 12.56-26.532 31.733-26.532 54.19 0 40.238 33.917 69.933 72.050 69.933l136.696 0.106c0.595 0.611 1.28 1.415 2.010 2.412 13.926 19.032 36.691 30.959 61.798 30.959s47.869-11.927 61.795-30.959c0.73-0.996 1.414-1.8 2.013-2.412l0.102-0.106h147.526c38.131 0 72.048-29.695 72.048-69.933 0-22.457-10.563-41.63-26.531-54.19v-328.486c0-88.365-71.635-160-160-160h-182.976c-88.365 0-159.999 71.635-159.999 160v328.486zM314.532 594.659v-312.746c0-53.018 42.982-96 95.999-96h182.976c53.021 0 96 42.982 96 96v312.746h-374.975zM420.403 527.123c0 17.674-14.33 32-32 32-17.674 0-32-14.326-32-32v-239.907c0-17.674 14.326-32 32-32 17.67 0 32 14.326 32 32v239.907zM506.685 559.123c17.674 0 32-14.326 32-32v-239.907c0-17.674-14.326-32-32-32s-32 14.326-32 32v239.907c0 17.674 14.326 32 32 32zM624.966 559.123c17.674 0 32-14.326 32-32v-239.907c0-17.674-14.326-32-32-32s-32 14.326-32 32v239.907c0 17.674 14.326 32 32 32z" />
<glyph unicode="&#xe944;" glyph-name="ic-ellipsis-horizontal" d="M351.296 448c0-35.347-28.496-64-63.649-64-35.151 0-63.647 28.653-63.647 64s28.496 64 63.647 64c35.153 0 63.649-28.653 63.649-64zM575.677 448c0-35.347-28.496-64-63.648-64s-63.648 28.653-63.648 64c0 35.347 28.496 64 63.648 64s63.648-28.653 63.648-64zM736.349 384c35.152 0 63.648 28.653 63.648 64s-28.496 64-63.648 64c-35.152 0-63.648-28.653-63.648-64s28.496-64 63.648-64z" />
<glyph unicode="&#xe945;" glyph-name="ic-ellipsis-vertical" d="M512 287.296c35.347 0 64-28.496 64-63.648s-28.653-63.648-64-63.648c-35.347 0-64 28.496-64 63.648s28.653 63.648 64 63.648zM512 511.677c35.347 0 64-28.496 64-63.648s-28.653-63.648-64-63.648c-35.347 0-64 28.496-64 63.648s28.653 63.648 64 63.648zM576 672.349c0 35.152-28.653 63.647-64 63.647s-64-28.496-64-63.647c0-35.152 28.653-63.648 64-63.648s64 28.496 64 63.648z" />
<glyph unicode="&#xe946;" glyph-name="ic-email" d="M158.625 554.198v-266.723c0-53.021 42.981-96 96-96h514.773c53.021 0 96 42.979 96 96v321.050c0 53.018-42.979 95.999-96 95.999h-514.773c-53.019 0-96-42.981-96-95.999v-54.326zM729.501 640.524c-4.49-2.082-8.915-4.552-13.238-7.426l-104.758-69.622-76.019-44.662c-9.453-5.555-21.091-5.882-30.842-0.87l-89.648 46.086-107.828 70.515c-3.429 2.243-6.919 4.234-10.452 5.98h432.785zM228.090 269.584c-3.451 5.107-5.465 11.264-5.465 17.891 0 0 0 0 0 0v266.723c0 25.43 28.231 40.701 49.514 26.784l110.622-72.346 1.488-0.762 91.133-46.851c29.251-15.037 64.163-14.054 92.522 2.608l78.285 46.051 105.498 70.112c21.267 14.134 49.712-1.114 49.712-26.65v-265.67c0-17.674-14.326-32-32-32h-514.773c-11.045 0-20.784 5.597-26.535 14.109z" />
<glyph unicode="&#xe947;" d="M288 704h448v-512h-448v512z" />
<glyph unicode="&#xe948;" d="M224 608c0 88.365 71.635 160 160 160h256c88.365 0 160-71.635 160-160v-320c0-88.365-71.635-160-160-160h-256c-88.365 0-160 71.635-160 160v320zM384 704c-53.021 0-96-42.981-96-96v-320c0-53.021 42.979-96 96-96h256c53.021 0 96 42.979 96 96v320c0 53.019-42.979 96-96 96h-256z" />
<glyph unicode="&#xe949;" d="M384 352h160c17.673 0 32-14.327 32-32s-14.327-32-32-32h-160c-17.673 0-32 14.327-32 32s14.327 32 32 32z" />
<glyph unicode="&#xe94a;" d="M384 480h256c17.673 0 32-14.327 32-32s-14.327-32-32-32h-256c-17.673 0-32 14.327-32 32s14.327 32 32 32z" />
<glyph unicode="&#xe94b;" d="M384 608h256c17.673 0 32-14.327 32-32s-14.327-32-32-32h-256c-17.673 0-32 14.327-32 32s14.327 32 32 32z" />
<glyph unicode="&#xe94c;" glyph-name="ic-file" d="M384 768c-88.365 0-160-71.635-160-160v-320c0-88.365 71.635-160 160-160h256c88.365 0 160 71.635 160 160v320c0 88.365-71.635 160-160 160h-256zM288 608c0 53.019 42.979 96 96 96h256c53.021 0 96-42.981 96-96v-320c0-53.021-42.979-96-96-96h-256c-53.021 0-96 42.979-96 96v320zM352 576c0 17.674 14.326 32 32 32h256c17.674 0 32-14.326 32-32s-14.326-32-32-32h-256c-17.674 0-32 14.326-32 32zM384 480c-17.674 0-32-14.326-32-32s14.326-32 32-32h256c17.674 0 32 14.326 32 32s-14.326 32-32 32h-256zM384 352c-17.674 0-32-14.326-32-32s14.326-32 32-32h160c17.674 0 32 14.326 32 32s-14.326 32-32 32h-160z" />
<glyph unicode="&#xe94e;" glyph-name="ic-finance" d="M512 96c-69.619 0-137.674 20.643-195.561 59.322s-103.003 93.654-129.645 157.974c-26.642 64.32-33.613 135.094-20.031 203.376s47.107 131.001 96.335 180.229c49.228 49.228 111.948 82.753 180.229 96.335s139.056 6.611 203.376-20.031c64.32-26.642 119.296-71.759 157.974-129.645s59.322-125.941 59.322-195.561c0-93.357-37.085-182.89-103.098-248.902s-155.546-103.098-248.902-103.098v0zM512 736c-56.96 0-112.643-16.891-160.003-48.537-47.362-31.646-84.276-76.625-106.074-129.252-21.798-52.624-27.501-110.531-16.389-166.397s38.542-107.184 78.819-147.462c40.277-40.275 91.596-67.706 147.461-78.819 55.866-11.11 113.773-5.408 166.4 16.39 52.624 21.798 97.603 58.71 129.248 106.074 31.648 47.36 48.538 103.043 48.538 160.003 0 76.381-30.342 149.635-84.352 203.647-54.013 54.010-127.264 84.353-203.648 84.353v0zM608.019 400c0 21.216-8.429 41.565-23.434 56.57-15.002 15.002-35.35 23.43-56.566 23.43h-32c-4.243 0-8.314 1.686-11.315 4.685-3.002 3.002-4.685 7.072-4.685 11.315s1.683 8.314 4.685 11.315c3.002 2.998 7.072 4.685 11.315 4.685h112v64h-64v32h-64v-33.6c-19.443-3.949-36.726-14.979-48.493-30.954-11.766-15.971-17.178-35.747-15.184-55.485 1.994-19.741 11.251-38.035 25.974-51.331 14.723-13.299 33.862-20.65 53.702-20.63h32c4.243 0 8.314-1.686 11.312-4.685 3.002-3.002 4.688-7.072 4.688-11.315s-1.686-8.314-4.688-11.315c-2.998-2.998-7.069-4.685-11.312-4.685h-112v-64h64v-32h64v32c18.342 3.741 34.79 13.795 46.483 28.413 11.696 14.618 17.894 32.87 17.517 51.587z" />
<glyph unicode="&#xe94f;" d="M320 384h128c16.973 0 33.251-6.742 45.254-18.746s18.746-28.282 18.746-45.254v-64h-192v128z" />
<glyph unicode="&#xe950;" d="M576 384h128v-128h-192v64c0 16.973 6.742 33.251 18.746 45.254s28.282 18.746 45.254 18.746v0z" />
<glyph unicode="&#xe951;" d="M800 474.24v133.76c0 25.459-10.115 49.879-28.118 67.882s-42.422 28.118-67.882 28.118c-133.12 0-156.8 6.72-192-24.96-34.88 31.36-55.36 24.96-192 24.96-25.461 0-49.879-10.114-67.882-28.118s-28.118-42.423-28.118-67.882v-133.76c-18.674-6.602-34.848-18.819-46.306-34.973-11.458-16.157-17.638-35.462-17.694-55.267v-192h192v32h320v-32h192v192c-0.054 19.805-6.237 39.11-17.693 55.267-11.459 16.154-27.635 28.371-46.307 34.973zM288 256h-64v128c0 8.486 3.372 16.627 9.372 22.627s14.14 9.373 22.628 9.373c8.487 0 16.626-3.373 22.628-9.373s9.372-14.141 9.372-22.627v-128zM352 288v96c-0.054 19.805-6.237 39.11-17.693 55.267-11.459 16.154-27.634 28.371-46.307 34.973v133.76c0 8.486 3.372 16.627 9.372 22.627s14.14 9.373 22.628 9.373h128c8.486 0 16.627-3.373 22.627-9.373s9.373-14.141 9.373-22.627h64c0 8.486 3.373 16.627 9.373 22.627s14.141 9.373 22.627 9.373h128c8.486 0 16.627-3.373 22.627-9.373s9.373-14.141 9.373-22.627v-133.76c-18.672-6.602-34.848-18.819-46.307-34.973-11.456-16.157-17.638-35.462-17.693-55.267v-96h-320zM800 256h-64v128c0 8.486 3.373 16.627 9.373 22.627s14.141 9.373 22.627 9.373c8.486 0 16.627-3.373 22.627-9.373s9.373-14.141 9.373-22.627v-128z" />
<glyph unicode="&#xe952;" d="M416 576h-64v-64h64v64z" />
<glyph unicode="&#xe953;" d="M672 576h-64v-64h64v64z" />
<glyph unicode="&#xe954;" d="M320 384h128c16.973 0 33.251-6.742 45.254-18.746s18.746-28.282 18.746-45.254v-64h-192v128z" />
<glyph unicode="&#xe955;" d="M576 384h128v-128h-192v64c0 16.973 6.742 33.251 18.746 45.254s28.282 18.746 45.254 18.746v0z" />
<glyph unicode="&#xe956;" d="M800 474.24v133.76c0 25.459-10.115 49.879-28.118 67.882s-42.422 28.118-67.882 28.118c-133.12 0-156.8 6.72-192-24.96-34.88 31.36-55.36 24.96-192 24.96-25.461 0-49.879-10.114-67.882-28.118s-28.118-42.423-28.118-67.882v-133.76c-18.674-6.602-34.848-18.819-46.306-34.973-11.458-16.157-17.638-35.462-17.694-55.267v-192h192v32h320v-32h192v192c-0.054 19.805-6.237 39.11-17.693 55.267-11.459 16.154-27.635 28.371-46.307 34.973zM288 256h-64v128c0 8.486 3.372 16.627 9.372 22.627s14.14 9.373 22.628 9.373c8.487 0 16.626-3.373 22.628-9.373s9.372-14.141 9.372-22.627v-128zM352 288v96c-0.054 19.805-6.237 39.11-17.693 55.267-11.459 16.154-27.634 28.371-46.307 34.973v133.76c0 8.486 3.372 16.627 9.372 22.627s14.14 9.373 22.628 9.373h128c8.486 0 16.627-3.373 22.627-9.373s9.373-14.141 9.373-22.627h64c0 8.486 3.373 16.627 9.373 22.627s14.141 9.373 22.627 9.373h128c8.486 0 16.627-3.373 22.627-9.373s9.373-14.141 9.373-22.627v-133.76c-18.672-6.602-34.848-18.819-46.307-34.973-11.456-16.157-17.638-35.462-17.693-55.267v-96h-320zM800 256h-64v128c0 8.486 3.373 16.627 9.373 22.627s14.141 9.373 22.627 9.373c8.486 0 16.627-3.373 22.627-9.373s9.373-14.141 9.373-22.627v-128z" />
<glyph unicode="&#xe957;" d="M416 576h-64v-64h64v64z" />
<glyph unicode="&#xe958;" d="M672 576h-64v-64h64v64z" />
<glyph unicode="&#xe959;" glyph-name="ic-furnished" d="M320 384h128c16.973 0 33.251-6.742 45.254-18.746s18.746-28.282 18.746-45.254v-64h-192v128zM576 384h128v-128h-192v64c0 16.973 6.742 33.251 18.746 45.254s28.282 18.746 45.254 18.746zM800 474.24v133.76c0 25.459-10.115 49.879-28.118 67.882s-42.422 28.118-67.882 28.118c-133.12 0-156.8 6.72-192-24.96-34.88 31.36-55.36 24.96-192 24.96-25.461 0-49.879-10.114-67.882-28.118s-28.118-42.423-28.118-67.882v-133.76c-18.674-6.602-34.848-18.819-46.306-34.973-11.458-16.157-17.638-35.462-17.694-55.267v-192h192v32h320v-32h192v192c-0.054 19.805-6.237 39.11-17.693 55.267-11.459 16.154-27.635 28.371-46.307 34.973zM288 256h-64v128c0 8.486 3.372 16.627 9.372 22.627s14.14 9.373 22.628 9.373c8.487 0 16.626-3.373 22.628-9.373s9.372-14.141 9.372-22.627v-128zM352 288v96c-0.054 19.805-6.237 39.11-17.693 55.267-11.459 16.154-27.634 28.371-46.307 34.973v133.76c0 8.486 3.372 16.627 9.372 22.627s14.14 9.373 22.628 9.373h128c8.486 0 16.627-3.373 22.627-9.373s9.373-14.141 9.373-22.627h64c0 8.486 3.373 16.627 9.373 22.627s14.141 9.373 22.627 9.373h128c8.486 0 16.627-3.373 22.627-9.373s9.373-14.141 9.373-22.627v-133.76c-18.672-6.602-34.848-18.819-46.307-34.973-11.456-16.157-17.638-35.462-17.693-55.267v-96h-320zM800 256h-64v128c0 8.486 3.373 16.627 9.373 22.627s14.141 9.373 22.627 9.373c8.486 0 16.627-3.373 22.627-9.373s9.373-14.141 9.373-22.627v-128zM416 576h-64v-64h64v64zM672 576h-64v-64h64v64z" />
<glyph unicode="&#xe95a;" glyph-name="ic-help-center" d="M512 704c-67.894 0-133.011-26.971-181.021-74.979-48.008-48.010-74.979-113.126-74.979-181.021h96c16.973 0 33.251-6.742 45.254-18.746s18.746-28.282 18.746-45.254v-160c0-16.973-6.742-33.251-18.746-45.254s-28.282-18.746-45.254-18.746h-96c-16.974 0-33.252 6.742-45.255 18.746s-18.745 28.282-18.745 45.254v224c0 176.736 143.264 320 320 320s320-143.264 320-320v-224c0-16.973-6.742-33.251-18.746-45.254s-28.282-18.746-45.254-18.746h-96c-16.973 0-33.251 6.742-45.254 18.746s-18.746 28.282-18.746 45.254v160c0 16.973 6.742 33.251 18.746 45.254s28.282 18.746 45.254 18.746h96c0 67.894-26.973 133.011-74.979 181.021-48.010 48.008-113.126 74.979-181.021 74.979zM256 384v-160h96v160h-96zM672 384v-160h96v160h-96z" />
<glyph unicode="&#xe95b;" glyph-name="ic-home" d="M794.512 465.171c0 17.722-7.347 34.65-20.294 46.752l-221.258 206.83c-24.598 22.995-62.81 22.995-87.408 0l-221.257-206.83c-12.947-12.102-20.295-29.030-20.295-46.752v-240.864c0-35.347 28.654-64 64-64h98.682c-10.886 18.826-17.12 40.682-17.12 63.994v70.621c0 37.859 16.758 73.776 45.773 98.096l11.702 9.808c47.568 39.875 116.89 39.875 164.458 0l11.702-9.808c29.011-24.32 45.77-60.237 45.77-98.096v-70.621c0-23.312-6.23-45.168-17.12-63.994h98.666c35.347 0 64 28.653 64 64v240.864zM496.669 160.307h25.19c34.938 0.477 63.107 28.944 63.107 63.994v70.621c0 18.931-8.378 36.89-22.883 49.050l-11.702 9.808c-23.786 19.939-58.445 19.939-82.23 0l-11.702-9.808c-14.506-12.16-22.886-30.118-22.886-49.050v-70.621c0-35.050 28.173-63.517 63.107-63.994zM496.301 96.307h-208.301c-70.692 0-128 57.306-128 128v240.864c0 35.443 14.697 69.302 40.59 93.507l221.256 206.828c49.2 45.991 125.622 45.991 174.819 0l221.258-206.828c25.891-24.205 40.589-58.064 40.589-93.507v-240.864c0-70.694-57.306-128-128-128h-208.282c-0.419-0.003-0.842-0.006-1.264-0.006h-23.405c-0.419 0-0.842 0.003-1.261 0.006z" />
<glyph unicode="&#xe95c;" glyph-name="ic-info" d="M512 96c-69.619 0-137.674 20.643-195.561 59.322s-103.003 93.654-129.645 157.974c-26.642 64.32-33.613 135.094-20.031 203.376s47.107 131.001 96.335 180.229c49.228 49.228 111.948 82.753 180.229 96.335s139.056 6.611 203.376-20.031c64.32-26.642 119.296-71.759 157.974-129.645s59.322-125.941 59.322-195.561c0-93.357-37.085-182.89-103.098-248.902s-155.546-103.098-248.902-103.098zM512 736c-56.96 0-112.643-16.891-160.003-48.537-47.362-31.646-84.276-76.625-106.074-129.252-21.798-52.624-27.501-110.531-16.389-166.397s38.542-107.184 78.819-147.462c40.277-40.275 91.596-67.706 147.461-78.819 55.866-11.11 113.773-5.408 166.4 16.39 52.624 21.798 97.603 58.71 129.248 106.074 31.648 47.36 48.538 103.043 48.538 160.003 0 76.381-30.342 149.635-84.352 203.647-54.013 54.010-127.264 84.353-203.648 84.353zM590.512 597.123c-21.888 15.782-49.382 23.674-82.483 23.674-25.171 0-46.426-5.549-63.686-16.666-27.398-17.395-41.952-46.944-43.718-88.608h63.494c0 12.154 3.552 23.808 10.618 35.098 7.085 11.251 19.104 16.877 36.058 16.877 17.242 0 29.126-4.57 35.597-13.69 6.509-9.158 9.754-19.277 9.754-30.374 0-9.677-4.838-18.528-10.694-26.554-3.488-4.982-7.776-9.354-12.691-12.941 0 0-34.426-22.080-49.536-39.821-8.755-10.272-9.542-25.69-10.33-47.77-0.038-1.574 0.557-4.838 6.048-4.838h49.363c4.915 0 5.933 3.629 5.99 5.261 0.346 8.026 1.229 12.154 2.707 16.8 2.765 8.774 10.33 16.416 18.797 23.021l17.472 12.038c15.782 12.307 28.358 22.387 33.926 30.298 9.485 12.979 16.166 28.992 16.166 48-0.019 31.008-10.963 54.374-32.851 70.195zM507.011 353.456c-21.869 0.672-39.917-14.477-40.608-38.208-0.672-23.693 16.474-39.379 38.362-40.013 22.829-0.672 40.397 13.958 41.107 37.69 0.653 23.731-16.013 39.859-38.861 40.531z" />
<glyph unicode="&#xe95d;" glyph-name="ic-investment" d="M337.6 422.4l-209.6-139.84 35.2-53.12 14.4 9.28v-142.72h320v142.72l14.4-9.28 35.2 53.12-209.6 139.84zM433.6 160h-64v64h-64v-64h-64v121.6l96 64 96-64v-121.6zM753.6 422.4l-209.6-139.84 35.2-53.12 14.4 9.28v-142.72h320v142.72l14.4-9.28 35.2 53.12-209.6 139.84zM849.6 160h-64v64h-64v-64h-64v121.6l96 64 96-64v-121.6zM640.026 528c0 21.216-8.429 41.565-23.434 56.57-15.002 15.002-35.35 23.43-56.566 23.43h-32c-4.246 0-8.314 1.686-11.315 4.685-3.002 3.002-4.685 7.072-4.685 11.315s1.683 8.314 4.685 11.315c3.002 2.998 7.069 4.685 11.315 4.685h112v64h-64v32h-64v-32c-21.219-2.122-40.723-12.585-54.227-29.088-13.501-16.503-19.894-37.696-17.773-58.912s12.582-40.723 29.088-54.224c16.502-13.504 37.693-19.898 58.912-17.776h32c4.243 0 8.31-1.686 11.312-4.685 3.002-3.002 4.688-7.072 4.688-11.315s-1.686-8.314-4.688-11.315c-3.002-2.998-7.069-4.685-11.312-4.685h-112v-64h64v-32h64v32c18.339 3.741 34.79 13.795 46.483 28.413 11.696 14.618 17.894 32.87 17.517 51.587v0z" />
<glyph unicode="&#xe95e;" d="M512 805.44l-352-211.2v-498.24h64v461.76l288 172.8 288-172.8v-461.76h64v498.24l-352 211.2z" />
<glyph unicode="&#xe95f;" d="M664.96 480h-305.92l-35.84-143.68-35.2-35.2v-141.12h448v141.12l-35.2 35.2-35.84 143.68zM615.040 416l16-64h-238.080l16 64h206.080zM672 224h-320v50.88l13.12 13.12h293.76l13.12-13.12v-50.88z" />
<glyph unicode="&#xe960;" d="M576 608h-128v-64h128v64z" />
<glyph unicode="&#xe961;" d="M512 805.44l-352-211.2v-498.24h64v461.76l288 172.8 288-172.8v-461.76h64v498.24l-352 211.2z" />
<glyph unicode="&#xe962;" d="M664.96 480h-305.92l-35.84-143.68-35.2-35.2v-141.12h448v141.12l-35.2 35.2-35.84 143.68zM615.040 416l16-64h-238.080l16 64h206.080zM672 224h-320v50.88l13.12 13.12h293.76l13.12-13.12v-50.88z" />
<glyph unicode="&#xe963;" d="M576 608h-128v-64h128v64z" />
<glyph unicode="&#xe964;" glyph-name="ic-labour" d="M512 805.44l-352-211.2v-498.24h64v461.76l288 172.8 288-172.8v-461.76h64v498.24l-352 211.2zM664.96 480h-305.92l-35.84-143.68-35.2-35.2v-141.12h448v141.12l-35.2 35.2-35.84 143.68zM615.040 416l16-64h-238.080l16 64h206.080zM672 224h-320v50.88l13.12 13.12h293.76l13.12-13.12v-50.88zM576 608h-128v-64h128v64z" />
<glyph unicode="&#xe965;" glyph-name="ic-list" d="M512 128c-176.73 0-320 143.27-320 320s143.27 320 320 320c176.73 0 320-143.27 320-320s-143.27-320-320-320zM512 64c212.077 0 384 171.923 384 384s-171.923 384-384 384c-212.077 0-384-171.923-384-384s171.923-384 384-384zM352 608h320c17.673 0 32-14.327 32-32s-14.327-32-32-32h-320c-17.673 0-32 14.327-32 32s14.327 32 32 32zM352 480h320c17.673 0 32-14.327 32-32s-14.327-32-32-32h-320c-17.673 0-32 14.327-32 32s14.327 32 32 32zM352 352h320c17.673 0 32-14.327 32-32s-14.327-32-32-32h-320c-17.673 0-32 14.327-32 32s14.327 32 32 32z" />
<glyph unicode="&#xe966;" glyph-name="ic-location" horiz-adv-x="819" d="M409.6-64c-225.792 128.061-409.6 352.681-409.6 617.452 0 107.822 43.154 211.229 119.967 287.473 76.815 76.243 181.002 119.076 289.633 119.076s212.818-42.833 289.633-119.076c76.81-76.243 119.967-179.651 119.967-287.473 0-264.771-184.832-489.897-409.6-617.452zM409.6 858.362c-81.475 0-159.611-32.125-217.221-89.307-57.615-57.181-89.979-134.738-89.979-215.604 0-269.343 229.376-446.193 307.2-498.534 77.824 50.816 307.2 230.211 307.2 498.534 0 40.038-7.946 79.688-23.383 116.685-15.442 36.992-38.067 70.605-66.596 98.919-28.524 28.314-62.387 50.774-99.661 66.097s-77.22 23.21-117.56 23.21zM409.6 396.8c84.831 0 153.6 68.769 153.6 153.6s-68.769 153.6-153.6 153.6c-84.831 0-153.6-68.769-153.6-153.6s68.769-153.6 153.6-153.6z" />
<glyph unicode="&#xe967;" glyph-name="ic-lock" d="M298.281 586.096c0 117.98 95.643 213.623 213.623 213.623s213.626-95.643 213.626-213.623v-31.702c25.408-17.27 42.099-46.413 42.099-79.453v-283.174c0-53.021-42.979-96-96-96h-319.379c-53.019 0-96 42.979-96 96v283.174c0 33.008 16.66 62.128 42.031 79.405v31.75zM661.53 586.096c0 82.634-66.989 149.623-149.626 149.623-82.634 0-149.622-66.989-149.622-149.623v-15.155h299.248v15.155zM352.25 506.941c-17.674 0-32-14.326-32-32v-283.174c0-17.674 14.326-32 32-32h319.379c17.674 0 32 14.326 32 32v283.174c0 17.674-14.326 32-32 32h-319.379zM511.968 410.931c24.278 0 43.962-19.683 43.962-43.962v-67.238c0-24.278-19.683-43.962-43.962-43.962s-43.962 19.683-43.962 43.962v67.238c0 24.278 19.683 43.962 43.962 43.962z" />
<glyph unicode="&#xe968;" d="M690.189 704c35.344 0 64-28.654 64-64v-386.803c0-35.344-28.656-64-64-64h-224c-35.347 0-64 28.656-64 64v386.804c0 35.346 28.653 64 64 64h224zM466.189 768c-70.694 0-128-57.308-128-128v-386.804c0-70.691 57.306-128 128-128h224c70.691 0 128 57.309 128 128v386.803c0 70.692-57.309 128-128 128h-224z" />
<glyph unicode="&#xe969;" d="M320 592h96v-288h-96v288z" />
<glyph unicode="&#xe96a;" d="M160.074 447.664c0 17.674 14.327 32 32 32h312.473l-56.723 56.723c-12.499 12.499-12.499 32.758 0 45.254 12.496 12.499 32.758 12.499 45.254 0l111.35-111.35c12.496-12.496 12.496-32.755 0-45.254l-111.35-111.35c-12.496-12.496-32.758-12.496-45.254 0-12.499 12.496-12.499 32.758 0 45.254l56.723 56.723h-312.473c-17.673 0-32 14.33-32 32z" />
<glyph unicode="&#xe96b;" glyph-name="ic-matching" d="M512 64c-75.949 0-150.189 22.522-213.339 64.717-63.148 42.192-112.367 102.166-141.431 172.333s-36.668 147.376-21.852 221.866c14.817 74.49 51.389 142.91 105.092 196.614s122.124 90.276 196.614 105.092c74.49 14.817 151.699 7.212 221.866-21.852s130.141-78.282 172.333-141.431c42.195-63.15 64.717-137.39 64.717-213.339 0-101.843-40.458-199.514-112.47-271.53-72.016-72.013-169.686-112.47-271.53-112.47zM512 762.182c-62.141 0-122.883-18.427-174.55-52.949s-91.936-83.591-115.716-140.999c-23.78-57.411-30.002-120.582-17.879-181.526 12.123-60.947 42.045-116.928 85.985-160.867s99.92-73.862 160.867-85.984c60.944-12.125 124.115-5.901 181.526 17.878 57.408 23.779 106.477 64.048 140.998 115.715 34.525 51.667 52.95 112.41 52.95 174.55 0 83.325-33.101 163.238-92.022 222.16s-138.835 92.022-222.16 92.022zM352 543.037v19.754c0 14.192 2.89 27.104 8.669 38.733s14.285 20.947 25.523 27.958c11.238 7.011 25.040 10.518 41.414 10.518 16.854 0 30.899-3.507 42.134-10.518 11.398-7.011 19.904-16.33 25.523-27.958 5.779-11.629 8.669-24.541 8.669-38.733v-19.754c0-13.85-2.89-26.592-8.669-38.221-5.619-11.629-14.045-20.947-25.28-27.958-11.238-7.011-25.123-10.518-41.654-10.518-16.694 0-30.739 3.507-42.138 10.518-11.238 7.011-19.744 16.33-25.523 27.958s-8.669 24.371-8.669 38.221zM397.99 562.79v-19.754c0-5.984 1.040-11.712 3.126-17.184 2.253-5.302 5.619-9.664 10.115-13.085 4.656-3.248 10.275-4.874 16.854-4.874 6.902 0 12.522 1.626 16.854 4.874 4.333 3.421 7.546 7.782 9.632 13.085 2.086 5.472 3.133 11.2 3.133 17.184v19.754c0 6.326-1.126 12.141-3.373 17.443-2.086 5.472-5.379 9.83-9.872 13.082-4.333 3.421-9.952 5.13-16.854 5.13-6.422 0-11.878-1.709-16.374-5.13-4.496-3.251-7.862-7.61-10.115-13.082-2.086-5.302-3.126-11.117-3.126-17.443zM519.584 332.954v19.75c0 14.022 2.89 26.848 8.669 38.477 5.942 11.629 14.528 20.95 25.763 27.962 11.398 7.011 25.363 10.515 41.898 10.515 16.691 0 30.659-3.504 41.894-10.515 11.238-7.011 19.747-16.333 25.526-27.962s8.666-24.454 8.666-38.477v-19.75c0-14.026-2.886-26.848-8.666-38.48-5.619-11.626-14.048-20.947-25.286-27.958-11.232-7.011-25.12-10.515-41.654-10.515-16.694 0-30.739 3.504-42.138 10.515-11.395 7.011-20.061 16.333-26.003 27.958-5.779 11.632-8.669 24.454-8.669 38.48zM565.814 352.704v-19.75c0-6.157 1.286-11.971 3.853-17.446 2.566-5.469 6.099-9.83 10.592-13.082 4.659-3.245 10.035-4.87 16.134-4.87 7.706 0 13.725 1.626 18.058 4.87 4.336 3.251 7.306 7.613 8.912 13.082 1.766 5.475 2.646 11.29 2.646 17.446v19.75c0 6.157-1.12 11.885-3.373 17.187-2.246 5.472-5.613 9.834-10.112 13.082-4.333 3.421-9.869 5.13-16.611 5.13s-12.362-1.709-16.854-5.13c-4.333-3.248-7.626-7.61-9.872-13.082-2.246-5.302-3.373-11.030-3.373-17.187zM613.008 581.258l-171.194-291.91-33.712 18.979 171.197 291.914 33.709-18.982z" />
<glyph unicode="&#xe96c;" glyph-name="ic-mic" d="M544 193.981v-33.981h96v-64h-256v64h96v33.981c-126.282 15.747-224 123.472-224 254.019v64h64v-64c0-106.038 85.962-192 192-192s192 85.962 192 192v64h64v-64c0-130.547-97.718-238.272-224-254.019zM512 800c70.691 0 128-57.308 128-128v-224c0-70.691-57.309-128-128-128s-128 57.309-128 128v224c0 70.692 57.309 128 128 128zM512 736c-35.347 0-64-28.654-64-64v-224c0-35.347 28.653-64 64-64s64 28.653 64 64v224c0 35.346-28.653 64-64 64z" />
<glyph unicode="&#xe96d;" glyph-name="ic-notification" d="M400 272v32c-17.674 0-32-14.326-32-32h32zM592 272h32c0 17.674-14.326 32-32 32v-32zM400 240h192v64h-192v-64zM560 272v-32h64v32h-64zM432 240v32h-64v-32h64zM496 176c-35.347 0-64 28.653-64 64h-64c0-70.691 57.309-128 128-128v64zM560 240c0-35.347-28.653-64-64-64v-64c70.691 0 128 57.309 128 128h-64z" />
<glyph unicode="&#xe96e;" d="M850.666 477.334v234.666c0 16.2-13.13 29.333-29.331 29.333l-93.562-2.545c-16.202 0-29.334-13.132-29.334-29.333v-26.788h-53.104c-16.202 0-29.334-13.133-29.334-29.333v-170.349h-127.126l-11.306 53.014h50.432c16.202 0 29.334 13.133 29.334 29.334v205.333c0 16.2-13.133 29.333-29.334 29.333h-293.333c-16.2 0-29.334-13.132-29.334-29.333v-205.333c0-16.202 13.133-29.334 29.333-29.334h50.431l-14.667-58.666h-65.097c-16.2 0-29.333-13.133-29.333-29.334v-88c0-16.202 13.132-29.334 29.333-29.334v-205.331c0-16.202 15.279-29.334 31.48-29.334 16.202 0 32 13.133 32 29.334v205.331h288v-205.181c0-16.198 13.651-29.485 29.853-29.485h240.326c16.202 0 29.334 13.133 29.334 29.334l-0.515 205.331c16.202 0 24.189 13.133 24.189 29.334v88c0 16.202-13.133 29.334-29.334 29.334zM762.666 677.455h24.083v-200.121h-24.083v200.121zM680.563 618.701h23.437v-141.366h-23.437v141.366zM268.812 736h224v-135.587h-224v135.587zM345.568 536h71.53l14.666-58.666h-100.861l14.666 58.666zM234.667 418.666h581.333v-23.85h-581.333v23.85zM792 160h-171.187v170.666h171.187v-170.666z" />
<glyph unicode="&#xe96f;" d="M661.834 184c16.198 0 29.331 13.133 29.331 29.331v58.669c0 16.198-13.133 29.331-29.331 29.331-16.202 0-29.334-13.133-29.334-29.331v-58.669c0-16.198 13.133-29.331 29.334-29.331z" />
<glyph unicode="&#xe970;" d="M850.666 477.334v234.666c0 16.2-13.13 29.333-29.331 29.333l-93.562-2.545c-16.202 0-29.334-13.132-29.334-29.333v-26.788h-53.104c-16.202 0-29.334-13.133-29.334-29.333v-170.349h-127.126l-11.306 53.014h50.432c16.202 0 29.334 13.133 29.334 29.334v205.333c0 16.2-13.133 29.333-29.334 29.333h-293.333c-16.2 0-29.334-13.132-29.334-29.333v-205.333c0-16.202 13.133-29.334 29.333-29.334h50.431l-14.667-58.666h-65.097c-16.2 0-29.333-13.133-29.333-29.334v-88c0-16.202 13.132-29.334 29.333-29.334v-205.331c0-16.202 15.279-29.334 31.48-29.334 16.202 0 32 13.133 32 29.334v205.331h288v-205.181c0-16.198 13.651-29.485 29.853-29.485h240.326c16.202 0 29.334 13.133 29.334 29.334l-0.515 205.331c16.202 0 24.189 13.133 24.189 29.334v88c0 16.202-13.133 29.334-29.334 29.334zM762.666 677.455h24.083v-200.121h-24.083v200.121zM680.563 618.701h23.437v-141.366h-23.437v141.366zM268.812 736h224v-135.587h-224v135.587zM345.568 536h71.53l14.666-58.666h-100.861l14.666 58.666zM234.667 418.666h581.333v-23.85h-581.333v23.85zM792 160h-171.187v170.666h171.187v-170.666z" />
<glyph unicode="&#xe971;" d="M661.834 184c16.198 0 29.331 13.133 29.331 29.331v58.669c0 16.198-13.133 29.331-29.331 29.331-16.202 0-29.334-13.133-29.334-29.331v-58.669c0-16.198 13.133-29.331 29.334-29.331z" />
<glyph unicode="&#xe972;" d="M850.666 477.334v234.666c0 16.2-13.13 29.333-29.331 29.333l-93.562-2.545c-16.202 0-29.334-13.132-29.334-29.333v-26.788h-53.104c-16.202 0-29.334-13.133-29.334-29.333v-170.349h-127.126l-11.306 53.014h50.432c16.202 0 29.334 13.133 29.334 29.334v205.333c0 16.2-13.133 29.333-29.334 29.333h-293.333c-16.2 0-29.334-13.132-29.334-29.333v-205.333c0-16.202 13.133-29.334 29.333-29.334h50.431l-14.667-58.666h-65.097c-16.2 0-29.333-13.133-29.333-29.334v-88c0-16.202 13.132-29.334 29.333-29.334v-205.331c0-16.202 15.279-29.334 31.48-29.334 16.202 0 32 13.133 32 29.334v205.331h288v-205.181c0-16.198 13.651-29.485 29.853-29.485h240.326c16.202 0 29.334 13.133 29.334 29.334l-0.515 205.331c16.202 0 24.189 13.133 24.189 29.334v88c0 16.202-13.133 29.334-29.334 29.334zM762.666 677.455h24.083v-200.121h-24.083v200.121zM680.563 618.701h23.437v-141.366h-23.437v141.366zM268.812 736h224v-135.587h-224v135.587zM345.568 536h71.53l14.666-58.666h-100.861l14.666 58.666zM234.667 418.666h581.333v-23.85h-581.333v23.85zM792 160h-171.187v170.666h171.187v-170.666z" />
<glyph unicode="&#xe973;" d="M661.834 184c16.198 0 29.331 13.133 29.331 29.331v58.669c0 16.198-13.133 29.331-29.331 29.331-16.202 0-29.334-13.133-29.334-29.331v-58.669c0-16.198 13.133-29.331 29.334-29.331z" />
<glyph unicode="&#xe974;" glyph-name="ic-p-payments" d="M288 544c8.487 0 16.626-3.373 22.628-9.373s9.372-14.141 9.372-22.627c50.275 0.074 99.104-16.842 138.56-48h69.44c42.656 0 80.96-18.56 107.328-48h100.672c30.25 0.010 59.878-8.557 85.456-24.704 25.578-16.15 46.054-39.216 59.056-66.528-75.68-99.872-198.208-164.768-336.512-164.768-89.28 0-164.8 19.296-225.92 53.056-2.239-6.179-6.328-11.514-11.711-15.283s-11.798-5.782-18.369-5.773h-96c-8.487 0-16.626 3.373-22.628 9.373s-9.372 14.141-9.372 22.627v288c0 8.486 3.372 16.627 9.372 22.627s14.14 9.373 22.628 9.373h96zM320.032 448l-0.032-160.704 1.44-1.024c57.44-40.32 132.256-62.272 222.56-62.272 96.128 0 185.568 36.992 250.72 100.16l4.256 4.256-3.84 3.2c-15.11 11.834-33.427 18.858-52.576 20.16l-6.56 0.224h-67.552c2.304-10.304 3.552-20.992 3.552-32v-32h-288v64l217.28 0.032-1.088 2.496c-6.131 12.816-15.565 23.766-27.331 31.728-11.763 7.965-25.437 12.653-39.613 13.584l-5.248 0.16h-93.76c-14.87 15.21-32.63 27.29-52.24 35.533-19.606 8.243-40.698 12.483-61.968 12.467zM256 480h-32v-224h32v224zM639.987 612.8c0 19.094-7.021 37.409-19.517 50.912s-29.446 21.088-47.117 21.088h-26.653c-3.536 0-6.925 1.517-9.424 4.218s-3.904 6.363-3.904 10.182c0 3.819 1.405 7.482 3.904 10.182s5.888 4.218 9.424 4.218h93.286v57.6h-53.306v28.8h-53.309v-30.24c-16.192-3.553-30.589-13.481-40.387-27.857-9.802-14.376-14.307-32.174-12.65-49.939 1.661-17.765 9.373-34.229 21.635-46.197s28.205-18.586 44.73-18.567h26.653c3.533 0 6.925-1.517 9.424-4.218s3.904-6.365 3.904-10.182c0-3.818-1.405-7.482-3.904-10.182s-5.891-4.218-9.424-4.218h-93.286v-57.6h53.306v-28.8h53.309v28.8c15.277 3.366 28.976 12.416 38.717 25.571s14.902 29.584 14.589 46.429z" />
<glyph unicode="&#xe975;" glyph-name="ic-p-size" d="M861.45 596.362l-497.802-497.805-203.648 203.648 497.802 497.802 203.648-203.645zM379.917 172.797l407.293 407.296-145.562 145.561-407.294-407.295 145.563-145.562zM660.381 620.819l-28.445-28.442 56.886-56.886 28.442 28.445-56.883 56.883zM561.629 522.051l-28.442-28.442 56.886-56.886 28.442 28.445-56.886 56.883zM477.005 437.402l-28.442-28.442 56.883-56.886 28.445 28.445-56.886 56.883zM378.192 338.634l-28.442-28.442 56.886-56.886 28.442 28.442-56.886 56.886zM667.562 700.446l-407.79-407.339-25.546 25.546 407.564 407.566 25.773-25.773z" />
<glyph unicode="&#xe976;" glyph-name="ic-p-view" d="M512.019 736c172.544 0 316.096-124.16 346.208-288-30.080-163.84-173.664-288-346.208-288s-316.095 124.16-346.207 288c30.080 163.84 173.663 288 346.207 288zM512.019 224c65.264 0.013 128.589 22.182 179.613 62.874 51.024 40.694 86.72 97.501 101.251 161.126-14.582 63.574-50.304 120.32-101.322 160.96-51.018 40.638-114.317 62.767-179.542 62.767s-128.522-22.129-179.539-62.767c-51.018-40.64-86.739-97.386-101.324-160.96 14.531-63.626 50.229-120.432 101.253-161.126 51.024-40.691 114.349-62.861 179.61-62.874zM512.019 304c-38.189 0-74.816 15.171-101.821 42.176-27.008 27.005-42.179 63.632-42.179 101.824s15.171 74.819 42.179 101.824c27.005 27.005 63.632 42.176 101.821 42.176 38.192 0 74.819-15.171 101.824-42.176s42.176-63.632 42.176-101.824c0-38.192-15.171-74.819-42.176-101.824s-63.632-42.176-101.824-42.176zM512.019 368c21.219 0 41.568 8.429 56.57 23.43 15.002 15.005 23.43 35.354 23.43 56.57s-8.429 41.565-23.43 56.57c-15.002 15.002-35.35 23.43-56.57 23.43-21.216 0-41.565-8.429-56.566-23.43-15.005-15.005-23.434-35.354-23.434-56.57s8.429-41.565 23.434-56.57c15.002-15.002 35.35-23.43 56.566-23.43z" />
<glyph unicode="&#xe977;" glyph-name="ic-pending" d="M496 832c-203.241 0-368-164.759-368-368 0-203.238 164.759-368 368-368 203.238 0 368 164.762 368 368 0 203.241-164.762 368-368 368zM0 464c0 273.933 222.067 496 496 496s496-222.067 496-496c0-273.933-222.067-496-496-496s-496 222.067-496 496zM512 768c35.346 0 64-28.654 64-64v-176h176c35.347 0 64-28.654 64-64s-28.653-64-64-64h-240c-35.346 0-64 28.654-64 64v240c0 35.346 28.654 64 64 64z" />
<glyph unicode="&#xe978;" d="M547.213 272h-70.4v-105.6h70.4v105.6z" />
<glyph unicode="&#xe979;" d="M758.426 166.4v633.6h-492.801v-704h492.801v70.4zM336.026 729.6h352v-70.4h-352v70.4zM476.826 166.4h-140.8v140.8h70.4v70.4h-70.4v70.4h70.4v70.4h-70.4v70.4h352v-422.4h-211.2z" />
<glyph unicode="&#xe97a;" d="M476.813 518.4h70.4v-70.4h-70.4v70.4z" />
<glyph unicode="&#xe97b;" d="M617.626 518.4h70.4v-70.4h-70.4v70.4z" />
<glyph unicode="&#xe97c;" d="M476.813 377.6h70.4v-70.4h-70.4v70.4z" />
<glyph unicode="&#xe97d;" d="M617.626 377.6h70.4v-70.4h-70.4v70.4z" />
<glyph unicode="&#xe97e;" d="M547.213 272h-70.4v-105.6h70.4v105.6z" />
<glyph unicode="&#xe97f;" d="M758.426 166.4v633.6h-492.801v-704h492.801v70.4zM336.026 729.6h352v-70.4h-352v70.4zM476.826 166.4h-140.8v140.8h70.4v70.4h-70.4v70.4h70.4v70.4h-70.4v70.4h352v-422.4h-211.2z" />
<glyph unicode="&#xe980;" d="M476.813 518.4h70.4v-70.4h-70.4v70.4z" />
<glyph unicode="&#xe981;" d="M617.626 518.4h70.4v-70.4h-70.4v70.4z" />
<glyph unicode="&#xe982;" d="M476.813 377.6h70.4v-70.4h-70.4v70.4z" />
<glyph unicode="&#xe983;" d="M617.626 377.6h70.4v-70.4h-70.4v70.4z" />
<glyph unicode="&#xe984;" glyph-name="ic-penthouse" d="M547.213 272h-70.4v-105.6h70.4v105.6zM758.426 166.4v633.6h-492.801v-704h492.801v70.4zM336.026 729.6h352v-70.4h-352v70.4zM476.826 166.4h-140.8v140.8h70.4v70.4h-70.4v70.4h70.4v70.4h-70.4v70.4h352v-422.4h-211.2zM476.813 518.4h70.4v-70.4h-70.4v70.4zM617.626 518.4h70.4v-70.4h-70.4v70.4zM476.813 377.6h70.4v-70.4h-70.4v70.4zM617.626 377.6h70.4v-70.4h-70.4v70.4z" />
<glyph unicode="&#xe985;" glyph-name="ic-personal-use" d="M346.765 211.2c-14.781 0-26.765 11.984-26.765 26.765 0 98.326 79.709 178.035 178.035 178.035h27.93c98.326 0 178.035-79.709 178.035-178.035 0-14.781-11.984-26.765-26.765-26.765h-330.47zM768 237.965c0 133.67-108.365 242.035-242.035 242.035h-27.93c-133.67 0-242.035-108.365-242.035-242.035 0-50.128 40.636-90.765 90.765-90.765h330.47c50.128 0 90.765 40.637 90.765 90.765zM511.974 492.8c-49.485 0-89.6 40.115-89.6 89.6s40.115 89.6 89.6 89.6c49.485 0 89.6-40.115 89.6-89.6s-40.115-89.6-89.6-89.6zM511.974 428.8c84.832 0 153.6 68.768 153.6 153.6s-68.768 153.6-153.6 153.6c-84.829 0-153.6-68.769-153.6-153.6s68.771-153.6 153.6-153.6z" />
<glyph unicode="&#xe986;" glyph-name="ic-pin" d="M707.699 809.526c-38.349 38.351-103.306 25.841-124.669-24.010l-69.766-162.787c-65.674 12.877-136.422-6.093-187.366-57.037l-74.913-74.912c-12.831-12.829-12.831-33.635 0-46.464l109.31-109.312-190.671-190.675c-12.831-12.826-12.831-33.632 0-46.461 12.83-12.832 33.634-12.832 46.464 0l190.671 190.669 109.315-109.315c6.16-6.16 14.518-9.619 23.232-9.619s17.072 3.459 23.235 9.619l74.909 74.915c50.947 50.944 69.917 121.696 57.037 187.366l162.79 69.766c49.85 21.363 62.358 86.32 24.006 124.672l-173.584 173.584zM643.427 759.632c3.053 7.122 12.33 8.908 17.811 3.43l173.584-173.584c5.475-5.478 3.693-14.758-3.43-17.811l-189.040-81.018c-15.962-6.842-23.843-24.922-17.99-41.27 18.003-50.304 6.816-108.589-33.373-148.778l-51.683-51.683-218.624 218.627 51.68 51.683c40.189 40.189 98.474 51.376 148.778 33.37 16.349-5.85 34.429 2.032 41.27 17.994l81.018 189.040z" />
<glyph unicode="&#xe987;" glyph-name="ic-profile" d="M192 416c0 176.73 143.27 320 320 320s320-143.27 320-320c0-74.646-25.558-143.325-68.403-197.757-16.317 87.19-76.547 159.597-156.771 192.112 35.789 28.122 58.774 71.798 58.774 120.845 0 84.832-68.768 153.6-153.6 153.6s-153.6-68.768-153.6-153.6c0-48.928 22.877-92.512 58.515-120.64-80.614-32.266-140.992-104.346-156.823-191.92-42.657 54.368-68.092 122.893-68.092 197.36zM321.456 158.89c-0.778 2.016-1.456 5.002-1.456 8.874v5.037c0 106.038 85.962 192 192 192 105.338 0 192-87.424 192-194.17 0-7.267-2.102-11.373-3.715-13.402-3.309-2.413-6.669-4.765-10.077-7.053-38.33-24.122-101.763-54.176-178.208-54.176-71.386 0-137.315 23.376-190.544 62.89zM128 416c0-122.518 57.377-231.632 146.727-301.942 3.535-4.074 7.579-7.763 12.139-10.982 40.312-28.445 118.514-71.075 225.134-71.075 78.941 0 152.317 23.821 213.334 64.666 3.168 2.003 6.173 3.965 9.011 5.866 2.752 1.843 5.338 3.853 7.754 6.016 93.44 70.042 153.901 181.686 153.901 307.453 0 212.077-171.923 384-384 384s-384-171.923-384-384zM601.6 531.2c0-49.485-40.115-89.6-89.6-89.6s-89.6 40.115-89.6 89.6c0 49.485 40.115 89.6 89.6 89.6s89.6-40.115 89.6-89.6z" />
<glyph unicode="&#xe988;" glyph-name="ic-profile1" d="M640 768c106.038 0 192-85.961 192-192v-256c0-57.309-25.107-108.752-64.925-143.933-8.243 94.528-70.826 173.488-156.336 205.469 33.542 28.179 54.861 70.432 54.861 117.664 0 84.832-68.768 153.6-153.6 153.6s-153.6-68.768-153.6-153.6c0-47.232 21.318-89.485 54.861-117.664-85.51-31.981-148.093-110.941-156.336-205.469-39.816 35.181-64.924 86.624-64.924 143.933v256c0 106.039 85.961 192 192 192h256zM327.146 136.557c-4.432 4.778-7.146 11.174-7.146 18.208 0 98.326 79.709 178.035 178.035 178.035h27.93c98.326 0 178.035-79.709 178.035-178.035 0-7.034-2.714-13.43-7.149-18.208-17.965-5.562-37.059-8.557-56.851-8.557h-256c-19.792 0-38.886 2.995-56.854 8.557zM128 320c0-110.448 69.945-204.56 167.956-240.458 14.498-9.811 31.983-15.542 50.809-15.542h330.47c18.826 0 36.31 5.731 50.81 15.542 98.010 35.898 167.955 130.010 167.955 240.458v256c0 141.385-114.614 256-256 256h-256c-141.385 0-256-114.615-256-256v-256zM601.6 499.2c0-49.485-40.115-89.6-89.6-89.6s-89.6 40.115-89.6 89.6c0 49.485 40.115 89.6 89.6 89.6s89.6-40.115 89.6-89.6z" />
<glyph unicode="&#xe989;" glyph-name="ic-propchat-fill" d="M160 618.928c0 82.33 66.742 149.072 149.073 149.072h215.42c82.333 0 149.075-66.742 149.075-149.072 0-82.333-66.742-149.075-149.075-149.075h-71.293c-17.699 0-34.608-7.328-46.707-20.243l-61.478-65.622v49.926c0 19.85-16.093 35.939-35.941 35.939-82.331 0-149.073 66.742-149.073 149.075zM309.073 832c-117.677 0-213.073-95.396-213.073-213.072 0-108.166 80.598-197.507 185.014-211.245v-23.696c0-3.152 0.209-6.214 0.612-9.184-0.808-2.813-1.241-5.782-1.241-8.854 0-116.755 92.063-213.075 207.657-213.075h76.698l70.534-75.286c38.106-40.675 101.664-10.694 101.664 41.165v35.37c104.746 11.603 185.014 102.806 185.014 211.827 0 110.154-81.949 202.115-188.291 212.163 2.563 13.21 3.907 26.854 3.907 40.816 0 117.676-95.398 213.072-213.075 213.072h-215.42zM710.672 515.226c1.19-0.134 2.397-0.205 3.622-0.205 78.429 0 143.658-65.818 143.658-149.072s-65.229-149.075-143.658-149.075c-23.75 0-41.357-19.568-41.357-41.645v-44.234l-63.034 67.28c-11.014 11.757-26.413 18.598-42.73 18.598h-79.133c-63.322 0-118.035 42.902-136.768 103.245 14.458 1.322 28.803 7.683 40.445 20.112l61.482 65.622h71.293c80.032 0 149.757 44.125 186.179 109.373zM672 704l-64 80c-53.334 5.333-163.2 16-176 16s-133.333-10.667-192-16l-80-64-32-112 96-128 64-48 32-16v-112l48-80 160-32 144-64 64 64 96 48c21.334 32 64 99.2 64 112s-32 69.334-48 96l-64 80-96 32v64l-16 80z" />
<glyph unicode="&#xe98a;" glyph-name="ic-propchat" d="M160 618.928c0 82.33 66.742 149.072 149.073 149.072h215.42c82.333 0 149.075-66.742 149.075-149.072 0-82.333-66.742-149.075-149.075-149.075h-71.293c-17.699 0-34.608-7.328-46.707-20.243l-61.478-65.622v49.926c0 19.85-16.093 35.939-35.941 35.939-82.331 0-149.073 66.742-149.073 149.075zM309.073 832c-117.677 0-213.073-95.396-213.073-213.072 0-108.166 80.598-197.507 185.014-211.245v-23.696c0-3.152 0.209-6.214 0.612-9.184-0.808-2.813-1.241-5.782-1.241-8.854 0-116.755 92.063-213.075 207.657-213.075h76.698l70.534-75.286c38.106-40.675 101.664-10.694 101.664 41.165v35.37c104.746 11.603 185.014 102.806 185.014 211.827 0 110.154-81.949 202.115-188.291 212.163 2.563 13.21 3.907 26.854 3.907 40.816 0 117.676-95.398 213.072-213.075 213.072h-215.42zM710.672 515.226c1.19-0.134 2.397-0.205 3.622-0.205 78.429 0 143.658-65.818 143.658-149.072s-65.229-149.075-143.658-149.075c-23.75 0-41.357-19.568-41.357-41.645v-44.234l-63.034 67.28c-11.014 11.757-26.413 18.598-42.73 18.598h-79.133c-63.322 0-118.035 42.902-136.768 103.245 14.458 1.322 28.803 7.683 40.445 20.112l61.482 65.622h71.293c80.032 0 149.757 44.125 186.179 109.373z" />
<glyph unicode="&#xe98b;" d="M310.4 768h403.2c22.915 0 44.89-9.609 61.094-26.712 16.202-17.103 25.306-40.3 25.306-64.488v-516.8h-576v516.8c0 24.188 9.103 47.385 25.306 64.488s38.18 26.712 61.094 26.712v0z" />
<glyph unicode="&#xe98c;" d="M310.4 736c-13.852 0-27.512-5.793-37.864-16.72-10.407-10.986-16.536-26.238-16.536-42.48v-484.8h512v484.8c0 16.242-6.128 31.494-16.538 42.48-10.352 10.927-24.010 16.72-37.862 16.72h-403.2zM310.4 800h403.2c31.978 0 62.269-13.425 84.323-36.704 22-23.221 34.077-54.363 34.077-86.496v-516.8c0-17.674-14.326-32-32-32h-576c-17.673 0-32 14.326-32 32v516.8c0 32.133 12.077 63.275 34.076 86.496 22.054 23.279 52.348 36.704 84.324 36.704z" />
<glyph unicode="&#xe98d;" d="M400 640c-26.509 0-48-21.491-48-48s21.491-48 48-48c26.509 0 48 21.491 48 48s-21.491 48-48 48zM288 592c0 61.856 50.144 112 112 112s112-50.144 112-112c0-61.856-50.144-112-112-112s-112 50.144-112 112z" />
<glyph unicode="&#xe98e;" d="M192 448h640v-64h-640v64z" />
<glyph unicode="&#xe98f;" d="M544 640c0 17.673 14.326 32 32 32h96c17.674 0 32-14.327 32-32s-14.326-32-32-32h-96c-17.674 0-32 14.326-32 32zM544 544c0 17.674 14.326 32 32 32h96c17.674 0 32-14.326 32-32s-14.326-32-32-32h-96c-17.674 0-32 14.326-32 32z" />
<glyph unicode="&#xe990;" glyph-name="ic-propwall" d="M400 640c-26.509 0-48-21.491-48-48s21.491-48 48-48c26.509 0 48 21.491 48 48s-21.491 48-48 48zM288 592c0 61.856 50.144 112 112 112s112-50.144 112-112c0-61.856-50.144-112-112-112s-112 50.144-112 112zM192 416c0 17.674 14.327 32 32 32h576c17.674 0 32-14.326 32-32s-14.326-32-32-32h-576c-17.673 0-32 14.326-32 32zM544 640c0 17.673 14.326 32 32 32h96c17.674 0 32-14.327 32-32s-14.326-32-32-32h-96c-17.674 0-32 14.326-32 32zM544 544c0 17.674 14.326 32 32 32h96c17.674 0 32-14.326 32-32s-14.326-32-32-32h-96c-17.674 0-32 14.326-32 32zM310.4 736c-13.852 0-27.512-5.793-37.864-16.72-10.407-10.986-16.536-26.238-16.536-42.48v-484.8h512v484.8c0 16.242-6.128 31.494-16.538 42.48-10.352 10.927-24.010 16.72-37.862 16.72h-403.2zM310.4 800h403.2c31.978 0 62.269-13.425 84.323-36.704 22-23.221 34.077-54.363 34.077-86.496v-516.8c0-17.674-14.326-32-32-32h-576c-17.673 0-32 14.326-32 32v516.8c0 32.133 12.077 63.275 34.076 86.496 22.054 23.279 52.348 36.704 84.324 36.704z" />
<glyph unicode="&#xe991;" glyph-name="ic-reject" d="M0 464c0 273.94 222.060 496 496 496s496-222.060 496-496c0-273.939-222.061-496-496-496s-496 222.061-496 496zM496 832c-203.247 0-368-164.753-368-368 0-203.245 164.753-368 368-368 203.245 0 368 164.755 368 368 0 203.247-164.755 368-368 368zM652.915 621.308c25.024-24.964 25.069-65.487 0.102-90.509l-223.442-223.963c-24.965-25.018-65.487-25.069-90.51-0.102-25.022 24.965-25.069 65.487-0.104 90.51l223.443 223.96c24.965 25.022 65.487 25.069 90.511 0.104zM653.261 307.072c-24.967-25.024-65.489-25.069-90.512-0.102l-223.96 223.441c-25.023 24.964-25.069 65.487-0.105 90.509s65.487 25.069 90.509 0.104l223.958-223.443c25.024-24.965 25.069-65.487 0.109-90.509z" />
<glyph unicode="&#xe992;" d="M614.4 460.8l-96 128 51.2 38.4 96-128-51.2-38.4z" />
<glyph unicode="&#xe993;" d="M505.568 588.804l-95.96-128-51.208 38.39 95.96 128 51.208-38.39z" />
<glyph unicode="&#xe994;" d="M864 448v-288h-704v288h704zM96 512v-416h832v416h-832z" />
<glyph unicode="&#xe995;" d="M512 608c-35.346 0-64 28.654-64 64s28.654 64 64 64c35.346 0 64-28.654 64-64s-28.654-64-64-64zM512 544c70.692 0 128 57.308 128 128s-57.308 128-128 128c-70.692 0-128-57.308-128-128s57.308-128 128-128z" />
<glyph unicode="&#xe996;" d="M236.15 383.25h62.673c12.25 0 22.895-1.823 31.937-5.468 9.042-3.647 16.005-9.042 20.891-16.188 4.957-7.146 7.437-15.968 7.437-26.469 0-9.114-1.422-16.733-4.265-22.858-2.844-6.126-6.819-11.194-11.922-15.204-5.032-3.937-10.902-7.182-17.61-9.734l-12.577-7.109h-52.609l-0.219 29.641h38.938c4.884 0 8.932 0.874 12.14 2.624 3.209 1.751 5.615 4.229 7.219 7.438 1.677 3.281 2.515 7.182 2.515 11.703 0 4.594-0.838 8.531-2.515 11.813-1.677 3.281-4.156 5.796-7.437 7.547-3.209 1.75-7.183 2.624-11.922 2.624h-24.282v-129.609h-38.391v159.25zM323.322 224l-35.218 70.437 40.687 0.219 35.656-69.015v-1.641h-41.125z" />
<glyph unicode="&#xe997;" d="M491.868 253.531v-29.531h-84.874v29.531h84.874zM420.666 383.25v-159.25h-38.391v159.25h38.391zM480.932 320.031v-28.547h-73.938v28.547h73.938zM492.197 383.25v-29.641h-85.203v29.641h85.203z" />
<glyph unicode="&#xe998;" d="M640.618 383.25v-159.25h-38.281l-56.328 99.094v-99.094h-38.391v159.25h38.391l56.328-99.094v99.094h38.281z" />
<glyph unicode="&#xe999;" d="M738.728 383.25v-159.25h-38.39v159.25h38.39zM786.634 383.25v-29.641h-133.11v29.641h133.11z" />
<glyph unicode="&#xe99a;" glyph-name="ic-reports" d="M224 704c17.673 0 32-14.327 32-32v-448h544c17.674 0 32-14.326 32-32s-14.326-32-32-32h-576c-17.673 0-32 14.326-32 32v480c0 17.673 14.327 32 32 32zM824.083 629.072c11.638-13.299 10.291-33.517-3.011-45.155l-256-224c-12.678-11.094-31.786-10.458-43.699 1.456l-107.334 107.334-169.552-141.29c-13.577-11.315-33.755-9.482-45.069 4.096s-9.48 33.754 4.097 45.069l191.999 160c12.717 10.595 31.411 9.747 43.114-1.955l106.832-106.832 233.469 204.288c13.302 11.637 33.517 10.289 45.155-3.011z" />
<glyph unicode="&#xe99b;" d="M480 352h-128v-192h128v192z" />
<glyph unicode="&#xe99c;" d="M672 416h-128v-128h128v128z" />
<glyph unicode="&#xe99d;" d="M799.971 573.76v194.239h-192v-37.12l-96 78.4-372.159-304.639 40.32-49.28 43.84 35.52v-394.88h575.999v394.88l43.84-35.52 40.32 49.28-84.16 69.12zM735.971 160h-447.999v384l223.999 183.359 224-183.359v-384zM735.971 625.92l-64 52.479v25.6h64v-78.079z" />
<glyph unicode="&#xe99e;" d="M480 352h-128v-192h128v192z" />
<glyph unicode="&#xe99f;" d="M672 416h-128v-128h128v128z" />
<glyph unicode="&#xe9a0;" d="M799.971 573.76v194.239h-192v-37.12l-96 78.4-372.159-304.639 40.32-49.28 43.84 35.52v-394.88h575.999v394.88l43.84-35.52 40.32 49.28-84.16 69.12zM735.971 160h-447.999v384l223.999 183.359 224-183.359v-384zM735.971 625.92l-64 52.479v25.6h64v-78.079z" />
<glyph unicode="&#xe9a1;" glyph-name="ic-residential" d="M480 352h-128v-192h128v192zM672 416h-128v-128h128v128zM799.971 573.76v194.239h-192v-37.12l-96 78.4-372.159-304.639 40.32-49.28 43.84 35.52v-394.88h575.999v394.88l43.84-35.52 40.32 49.28-84.16 69.12zM735.971 160h-447.999v384l223.999 183.359 224-183.359v-384zM735.971 625.92l-64 52.479v25.6h64v-78.079z" />
<glyph unicode="&#xe9a2;" d="M614.4 460.8l-96 128 51.2 38.4 96-128-51.2-38.4z" />
<glyph unicode="&#xe9a3;" d="M505.568 588.804l-95.96-128-51.208 38.39 95.96 128 51.208-38.39z" />
<glyph unicode="&#xe9a4;" d="M864 448v-288h-704v288h704zM96 512v-416h832v416h-832z" />
<glyph unicode="&#xe9a5;" d="M318.172 266.328c0 2.479-0.365 4.703-1.094 6.671-0.728 2.042-2.077 3.937-4.046 5.688s-4.813 3.5-8.531 5.249c-3.647 1.823-8.458 3.718-14.438 5.688-6.999 2.332-13.745 4.957-20.234 7.875-6.49 2.989-12.287 6.452-17.39 10.391-5.105 4.010-9.151 8.677-12.141 13.999-2.99 5.396-4.484 11.667-4.484 18.812 0 6.854 1.531 13.016 4.593 18.484 3.063 5.542 7.328 10.245 12.797 14.109 5.541 3.937 12.031 6.927 19.469 8.969 7.437 2.115 15.567 3.172 24.39 3.172 11.667 0 21.948-2.042 30.844-6.125 8.969-4.010 15.968-9.734 21-17.172 5.105-7.364 7.656-16.078 7.656-26.14h-38.171c0 4.010-0.838 7.547-2.516 10.61-1.604 3.062-4.046 5.468-7.328 7.218s-7.401 2.625-12.36 2.625c-4.812 0-8.859-0.73-12.14-2.188s-5.761-3.427-7.438-5.906c-1.677-2.406-2.515-5.068-2.515-7.985 0-2.406 0.655-4.594 1.969-6.563 1.385-1.896 3.318-3.683 5.797-5.359 2.551-1.677 5.614-3.281 9.187-4.813 3.647-1.531 7.73-3.026 12.251-4.484 8.458-2.698 15.968-5.724 22.531-9.078 6.636-3.282 12.214-7.037 16.735-11.267 4.594-4.156 8.058-8.896 10.391-14.218 2.406-5.324 3.608-11.338 3.608-18.047 0-7.146-1.385-13.49-4.156-19.031-2.77-5.542-6.744-10.245-11.922-14.109-5.176-3.793-11.374-6.673-18.593-8.641s-15.276-2.953-24.172-2.953c-8.166 0-16.224 1.021-24.173 3.063-7.875 2.115-15.021 5.322-21.437 9.624-6.417 4.375-11.557 9.953-15.421 16.735-3.791 6.854-5.687 14.984-5.687 24.39h38.5c0-4.667 0.62-8.604 1.86-11.812 1.239-3.209 3.062-5.797 5.468-7.766 2.406-1.897 5.359-3.282 8.859-4.156 3.501-0.803 7.511-1.203 12.032-1.203 4.886 0 8.823 0.692 11.812 2.077 2.99 1.458 5.178 3.355 6.563 5.688 1.386 2.405 2.079 5.030 2.079 7.875z" />
<glyph unicode="&#xe9a6;" d="M443.844 349.782l-38.829-125.782h-41.234l58.515 159.25h26.141l-4.594-33.468zM476 224l-38.938 125.782-5.032 33.468h26.469l58.844-159.25h-41.344zM474.469 283.391v-29.641h-81.704v29.641h81.704z" />
<glyph unicode="&#xe9a7;" d="M634.266 253.531v-29.531h-80.5v29.531h80.5zM567.438 383.25v-159.25h-38.391v159.25h38.391z" />
<glyph unicode="&#xe9a8;" d="M760.047 253.531v-29.531h-84.876v29.531h84.876zM688.844 383.25v-159.25h-38.39v159.25h38.39zM749.11 320.031v-28.547h-73.938v28.547h73.938zM760.375 383.25v-29.641h-85.203v29.641h85.203z" />
<glyph unicode="&#xe9a9;" d="M512 608c-35.346 0-64 28.654-64 64s28.654 64 64 64c35.346 0 64-28.654 64-64s-28.654-64-64-64zM512 544c70.692 0 128 57.308 128 128s-57.308 128-128 128c-70.692 0-128-57.308-128-128s57.308-128 128-128z" />
<glyph unicode="&#xe9aa;" glyph-name="ic-search" d="M606.39 670.392c87.478-87.477 87.478-229.307 0-316.782-87.475-87.478-229.306-87.478-316.782 0-87.477 87.475-87.477 229.306 0 316.782s229.307 87.477 316.782 0zM662.666 319.994c101.325 113.078 97.651 286.982-11.018 395.653-112.474 112.471-294.822 112.471-407.295 0-112.471-112.472-112.471-294.821 0-407.295 105.503-105.501 272.495-112.038 385.618-19.61-0.195-8.435 2.925-16.931 9.363-23.37l158.39-158.394c12.499-12.496 32.758-12.496 45.254 0 12.499 12.499 12.499 32.758 0 45.258l-158.39 158.39c-6.070 6.070-13.971 9.19-21.923 9.366z" />
<glyph unicode="&#xe9ab;" glyph-name="ic-settings" d="M469.734 800c-35.344 0-64-28.654-64-64v-33.718l-23.827 23.829c-24.995 24.993-65.516 24.993-90.51 0l-57.524-57.524c-24.994-24.994-24.994-65.515 0-90.51l23.878-23.878h-33.752c-35.346 0-64-28.653-64-64v-81.35c0-35.347 28.654-64 64-64h33.763l-23.882-23.882c-24.994-24.995-24.994-65.517 0-90.509l57.524-57.526c24.994-24.992 65.516-24.992 90.508 0l23.821 23.824v-33.718c0-35.344 28.656-64 64-64h81.354c35.344 0 64 28.656 64 64v33.827l23.933-23.933c24.992-24.992 65.514-24.992 90.509 0l57.523 57.523c24.992 24.995 24.992 65.517 0 90.509l-23.885 23.885h33.795c35.344 0 64 28.653 64 64v81.35c0 35.347-28.656 64-64 64h-33.782l23.878 23.882c24.995 24.992 24.995 65.515 0 90.508l-57.523 57.524c-24.992 24.994-65.517 24.994-90.509 0l-23.939-23.94v33.829c0 35.346-28.656 64-64 64h-81.354zM469.734 736h81.354v-33.829c0-57.018 68.934-85.573 109.254-45.255l23.939 23.94 57.523-57.523-23.878-23.882c-40.317-40.317-11.763-109.254 45.254-109.254h33.782v-81.35h-33.795c-57.018 0-85.571-68.938-45.254-109.254l23.885-23.885-57.523-57.523-23.933 23.933c-40.32 40.317-109.254 11.763-109.254-45.254v-33.827h-81.354v33.718c0 57.018-68.934 85.571-109.254 45.254l-23.821-23.821-57.523 57.523 23.882 23.882c40.316 40.317 11.763 109.254-45.255 109.254h-33.763v81.35h33.752c57.018 0 85.573 68.938 45.255 109.254l-23.878 23.878 57.524 57.524 23.827-23.829c40.32-40.316 109.254-11.763 109.254 45.255v33.718zM444.186 449.52c0 36.592 29.664 66.256 66.256 66.256 36.589 0 66.253-29.664 66.253-66.256s-29.664-66.256-66.253-66.256c-36.592 0-66.256 29.664-66.256 66.256zM510.442 579.776c-71.939 0-130.256-58.32-130.256-130.256 0-71.939 58.317-130.256 130.256-130.256 71.936 0 130.253 58.317 130.253 130.256 0 71.936-58.317 130.256-130.253 130.256z" />
<glyph unicode="&#xe9ac;" glyph-name="ic-share" d="M216 426.819c0 53.021 42.981 96 96 96h400.128c53.021 0 96-42.979 96-96v-249.926c0-53.021-42.979-96-96-96h-400.128c-53.019 0-96 42.979-96 96v249.926zM312 458.819c-17.673 0-32-14.326-32-32v-249.926c0-17.674 14.327-32 32-32h400.128c17.674 0 32 14.326 32 32v249.926c0 17.674-14.326 32-32 32h-400.128zM510.829 325.168c-17.674 0-32 14.33-32 32v349.578l-67.325-67.325c-12.496-12.496-32.755-12.496-45.254 0-12.496 12.497-12.496 32.759 0 45.255l121.952 121.952c12.496 12.497 32.758 12.497 45.254 0l121.952-121.952c12.496-12.497 12.496-32.758 0-45.255s-32.758-12.496-45.254 0l-67.325 67.325v-349.578c0-17.67-14.326-32-32-32z" />
<glyph unicode="&#xe9ad;" d="M832 160v448h-64v-448h-64v288h-64v-96h-256v96h-64v-288h-64v448h-64v-448h-32v-64h704v64h-32zM640 160h-256v128h256v-128z" />
<glyph unicode="&#xe9ae;" d="M832 608h-640c0 114.88 129.92 192 245.12 192h149.76c111.68 0 245.12-73.92 245.12-192z" />
<glyph unicode="&#xe9af;" d="M720 416h-419.75l3.75 48 16 48h384l16-48v-48z" />
<glyph unicode="&#xe9b0;" d="M672 384c17.674 0 32 14.326 32 32v64c0 17.674-14.326 32-32 32s-32-14.326-32-32v-64c0-17.674 14.326-32 32-32z" />
<glyph unicode="&#xe9b1;" d="M608 384c17.674 0 32 14.326 32 32v64c0 17.674-14.326 32-32 32s-32-14.326-32-32v-64c0-17.674 14.326-32 32-32z" />
<glyph unicode="&#xe9b2;" d="M480 384c17.674 0 32 14.326 32 32v64c0 17.674-14.326 32-32 32s-32-14.326-32-32v-64c0-17.674 14.326-32 32-32z" />
<glyph unicode="&#xe9b3;" d="M544 384c17.674 0 32 14.326 32 32v64c0 17.674-14.326 32-32 32s-32-14.326-32-32v-64c0-17.674 14.326-32 32-32z" />
<glyph unicode="&#xe9b4;" d="M416 384c17.674 0 32 14.326 32 32v64c0 17.674-14.326 32-32 32s-32-14.326-32-32v-64c0-17.674 14.326-32 32-32z" />
<glyph unicode="&#xe9b5;" d="M352 384c17.674 0 32 14.326 32 32v64c0 17.674-14.326 32-32 32s-32-14.326-32-32v-64c-0.002-17.674 14.326-32 32-32z" />
<glyph unicode="&#xe9b6;" d="M832 160v448h-64v-448h-64v288h-64v-96h-256v96h-64v-288h-64v448h-64v-448h-32v-64h704v64h-32zM640 160h-256v128h256v-128z" />
<glyph unicode="&#xe9b7;" d="M832 608h-640c0 114.88 129.92 192 245.12 192h149.76c111.68 0 245.12-73.92 245.12-192z" />
<glyph unicode="&#xe9b8;" d="M720 416h-419.75l3.75 48 16 48h384l16-48v-48z" />
<glyph unicode="&#xe9b9;" d="M672 384c17.674 0 32 14.326 32 32v64c0 17.674-14.326 32-32 32s-32-14.326-32-32v-64c0-17.674 14.326-32 32-32z" />
<glyph unicode="&#xe9ba;" d="M608 384c17.674 0 32 14.326 32 32v64c0 17.674-14.326 32-32 32s-32-14.326-32-32v-64c0-17.674 14.326-32 32-32z" />
<glyph unicode="&#xe9bb;" d="M480 384c17.674 0 32 14.326 32 32v64c0 17.674-14.326 32-32 32s-32-14.326-32-32v-64c0-17.674 14.326-32 32-32z" />
<glyph unicode="&#xe9bc;" d="M544 384c17.674 0 32 14.326 32 32v64c0 17.674-14.326 32-32 32s-32-14.326-32-32v-64c0-17.674 14.326-32 32-32z" />
<glyph unicode="&#xe9bd;" d="M416 384c17.674 0 32 14.326 32 32v64c0 17.674-14.326 32-32 32s-32-14.326-32-32v-64c0-17.674 14.326-32 32-32z" />
<glyph unicode="&#xe9be;" d="M352 384c17.674 0 32 14.326 32 32v64c0 17.674-14.326 32-32 32s-32-14.326-32-32v-64c-0.002-17.674 14.326-32 32-32z" />
<glyph unicode="&#xe9bf;" glyph-name="ic-shop" d="M832 160v448h-64v-448h-64v288h-64v-96h-256v96h-64v-288h-64v448h-64v-448h-32v-64h704v64h-32zM640 160h-256v128h256v-128zM832 608h-640c0 114.88 129.92 192 245.12 192h149.76c111.68 0 245.12-73.92 245.12-192zM720 416h-419.75l3.75 48 16 48h384l16-48v-48zM672 384c17.674 0 32 14.326 32 32v64c0 17.674-14.326 32-32 32s-32-14.326-32-32v-64c0-17.674 14.326-32 32-32zM608 384c17.674 0 32 14.326 32 32v64c0 17.674-14.326 32-32 32s-32-14.326-32-32v-64c0-17.674 14.326-32 32-32zM480 384c17.674 0 32 14.326 32 32v64c0 17.674-14.326 32-32 32s-32-14.326-32-32v-64c0-17.674 14.326-32 32-32zM544 384c17.674 0 32 14.326 32 32v64c0 17.674-14.326 32-32 32s-32-14.326-32-32v-64c0-17.674 14.326-32 32-32zM416 384c17.674 0 32 14.326 32 32v64c0 17.674-14.326 32-32 32s-32-14.326-32-32v-64c0-17.674 14.326-32 32-32zM352 384c17.674 0 32 14.326 32 32v64c0 17.674-14.326 32-32 32s-32-14.326-32-32v-64c-0.002-17.674 14.326-32 32-32z" />
<glyph unicode="&#xe9c0;" d="M861.45 596.362l-497.802-497.805-203.648 203.648 497.802 497.802 203.648-203.645zM379.917 172.797l407.293 407.296-145.562 145.561-407.294-407.295 145.563-145.562z" />
<glyph unicode="&#xe9c1;" d="M660.381 620.819l-28.445-28.442 56.886-56.886 28.442 28.445-56.883 56.883z" />
<glyph unicode="&#xe9c2;" d="M561.629 522.051l-28.442-28.442 56.886-56.886 28.442 28.445-56.886 56.883z" />
<glyph unicode="&#xe9c3;" d="M477.005 437.402l-28.442-28.442 56.883-56.886 28.445 28.445-56.886 56.883z" />
<glyph unicode="&#xe9c4;" d="M378.192 338.634l-28.442-28.442 56.886-56.886 28.442 28.442-56.886 56.886z" />
<glyph unicode="&#xe9c5;" d="M667.562 700.446l-407.79-407.339-25.546 25.546 407.564 407.566 25.773-25.773z" />
<glyph unicode="&#xe9c6;" d="M861.45 596.362l-497.802-497.805-203.648 203.648 497.802 497.802 203.648-203.645zM379.917 172.797l407.293 407.296-145.562 145.561-407.294-407.295 145.563-145.562z" />
<glyph unicode="&#xe9c7;" d="M660.381 620.819l-28.445-28.442 56.886-56.886 28.442 28.445-56.883 56.883z" />
<glyph unicode="&#xe9c8;" d="M561.629 522.051l-28.442-28.442 56.886-56.886 28.442 28.445-56.886 56.883z" />
<glyph unicode="&#xe9c9;" d="M477.005 437.402l-28.442-28.442 56.883-56.886 28.445 28.445-56.886 56.883z" />
<glyph unicode="&#xe9ca;" d="M378.192 338.634l-28.442-28.442 56.886-56.886 28.442 28.442-56.886 56.886z" />
<glyph unicode="&#xe9cb;" d="M667.562 700.446l-407.79-407.339-25.546 25.546 407.564 407.566 25.773-25.773z" />
<glyph unicode="&#xe9cc;" glyph-name="ic-size" d="M861.45 596.362l-497.802-497.805-203.648 203.648 497.802 497.802 203.648-203.645zM379.917 172.797l407.293 407.296-145.562 145.561-407.294-407.295 145.563-145.562zM660.381 620.819l-28.445-28.442 56.886-56.886 28.442 28.445-56.883 56.883zM561.629 522.051l-28.442-28.442 56.886-56.886 28.442 28.445-56.886 56.883zM477.005 437.402l-28.442-28.442 56.883-56.886 28.445 28.445-56.886 56.883zM378.192 338.634l-28.442-28.442 56.886-56.886 28.442 28.442-56.886 56.886zM667.562 700.446l-407.79-407.339-25.546 25.546 407.564 407.566 25.773-25.773z" />
<glyph unicode="&#xe9ce;" glyph-name="ic-star-fill" d="M484.349 688.945c12.342 21.193 42.96 21.193 55.302 0l44.298-76.055c13.565-23.29 36.294-39.805 62.637-45.507l86.022-18.627c23.968-5.19 33.43-34.31 17.088-52.598l-58.643-65.632c-17.958-20.096-26.64-46.819-23.923-73.632l8.864-87.568c2.47-24.4-22.298-42.397-44.739-32.506l-80.544 35.491c-24.662 10.867-52.758 10.867-77.421 0l-80.544-35.491c-22.442-9.891-47.21 8.106-44.739 32.506l8.864 87.568c2.717 26.813-5.965 53.536-23.923 73.632l-58.644 65.632c-16.341 18.288-6.88 47.408 17.090 52.598l86.022 18.627c26.339 5.702 49.072 22.218 62.637 45.507l44.298 76.055z" />
<glyph unicode="&#xe9d0;" d="M322.48 448.477h-107.355v-161.034h107.355v161.034z" />
<glyph unicode="&#xe9d1;" d="M483.542 502.154h-107.354v-107.357h107.354v107.357z" />
<glyph unicode="&#xe9d2;" d="M617.683 634.467v162.911h-161.034v-31.133l-80.515 65.755-312.134-255.504 33.817-41.331 36.769 29.789v-331.187h483.097v331.187l36.768-29.789 33.818 41.331-70.586 57.971zM564.006 287.443h-375.743v322.064l187.871 153.786 187.872-153.786v-80.518h53.677v-241.546h-53.677zM564.006 678.214l-53.68 44.016v21.471h53.68v-65.487z" />
<glyph unicode="&#xe9d3;" d="M573.936 555.827h322.067v-295.226h-281.808" />
<glyph unicode="&#xe9d4;" d="M708.115 475.312h-53.677v-53.677h53.677v53.677z" />
<glyph unicode="&#xe9d5;" d="M815.491 475.312h-53.68v-53.677h53.68v53.677z" />
<glyph unicode="&#xe9d6;" d="M322.48 448.477h-107.355v-161.034h107.355v161.034z" />
<glyph unicode="&#xe9d7;" d="M483.542 502.154h-107.354v-107.357h107.354v107.357z" />
<glyph unicode="&#xe9d8;" d="M617.683 634.467v162.911h-161.034v-31.133l-80.515 65.755-312.134-255.504 33.817-41.331 36.769 29.789v-331.187h483.097v331.187l36.768-29.789 33.818 41.331-70.586 57.971zM564.006 287.443h-375.743v322.064l187.871 153.786 187.872-153.786v-80.518h53.677v-241.546h-53.677zM564.006 678.214l-53.68 44.016v21.471h53.68v-65.487z" />
<glyph unicode="&#xe9d9;" d="M573.936 555.827h322.067v-295.226h-281.808" />
<glyph unicode="&#xe9da;" d="M708.115 475.312h-53.677v-53.677h53.677v53.677z" />
<glyph unicode="&#xe9db;" d="M815.491 475.312h-53.68v-53.677h53.68v53.677z" />
<glyph unicode="&#xe9dc;" glyph-name="ic-townhouse" d="M322.48 448.477h-107.355v-161.034h107.355v161.034zM483.542 502.154h-107.354v-107.357h107.354v107.357zM617.683 634.467v162.911h-161.034v-31.133l-80.515 65.755-312.134-255.504 33.817-41.331 36.769 29.789v-331.187h483.097v331.187l36.768-29.789 33.818 41.331-70.586 57.971zM564.006 287.443h-375.743v322.064l187.871 153.786 187.872-153.786v-80.518h53.677v-241.546h-53.677zM564.006 678.214l-53.68 44.016v21.471h53.68v-65.487zM708.115 475.312h-53.677v-53.677h53.677v53.677zM815.491 475.312h-53.68v-53.677h53.68v53.677z" />
<glyph unicode="&#xe9dd;" glyph-name="ic-trade" d="M182.229 645.333h661.333v85.333h-661.333v-85.333zM843.563 250.667h-661.333v-85.333h661.333v85.333zM843.563 645.333v-394.667h85.333v394.667h-85.333zM182.229 250.667v394.667h-85.333v-394.667h85.333zM843.563 165.333c47.13 0 85.333 38.204 85.333 85.333h-85.333v-85.333zM843.563 645.333h85.333c0 47.128-38.204 85.333-85.333 85.333v-85.333zM182.229 730.667c-47.128 0-85.333-38.205-85.333-85.333h85.333v85.333zM182.229 250.667v0h-85.333c0-47.13 38.205-85.333 85.333-85.333v85.333zM256.875 560.104c-23.564 0-42.667-19.102-42.667-42.668 0-23.561 19.102-42.667 42.667-42.667v85.335zM496 474.769c23.565 0 42.667 19.106 42.667 42.667 0 23.566-19.102 42.668-42.667 42.668v-85.335zM256.875 432.102c-23.564 0-42.667-19.102-42.667-42.667 0-23.561 19.102-42.667 42.667-42.667v85.333zM496 346.769c23.565 0 42.667 19.106 42.667 42.667 0 23.565-19.102 42.667-42.667 42.667v-85.333zM256.875 474.769h239.125v85.335h-239.125v-85.335zM256.875 346.769h239.125v85.333h-239.125v-85.333zM710.703 446.605c33.182 0 60.079-26.897 60.079-60.079 0-1.399-1.135-2.53-2.53-2.53h-125.722c-1.399 0-2.53 1.131-2.53 2.53 0 33.182 26.897 60.079 60.079 60.079h10.624zM737.382 517.564c0-17.673-14.327-32-32-32s-32 14.327-32 32c0 17.673 14.327 32 32 32s32-14.327 32-32z" />
<glyph unicode="&#xe9de;" glyph-name="ic-unpin" d="M160.768 88.224c-18.145 0.007-32.852 14.718-32.852 32.864 0 9.12 3.715 17.372 9.714 23.326l190.658 190.69-109.312 109.184c-5.945 5.952-9.622 14.17-9.622 23.248s3.677 17.296 9.622 23.248v0l53.504 53.632 46.464-46.464-30.176-30.336 218.624-218.624 30.272 30.272 46.464-46.464-53.504-53.504c-5.962-5.917-14.167-9.579-23.228-9.6h-0.004c-0.033 0-0.073 0-0.112 0-9.033 0-17.209 3.67-23.119 9.599l-0.001 0.001-109.408 109.12-190.688-190.56c-5.899-5.949-14.076-9.633-23.112-9.633-0.065 0-0.129 0-0.194 0.001h0.010zM652.064 325.504v0l-53.216 53.216c1.16 6.845 1.823 14.731 1.823 22.771 0 17.143-3.013 33.582-8.538 48.817l0.316-0.997c-1.213 3.292-1.915 7.094-1.915 11.060 0 13.47 8.096 25.049 19.688 30.137l0.211 0.083 189.056 81.024c3.93 1.728 6.625 5.588 6.625 10.077 0 3.024-1.223 5.762-3.201 7.748v0l-173.664 173.6c-1.985 1.978-4.723 3.201-7.747 3.201-4.489 0-8.348-2.695-10.049-6.555l-0.028-0.070-81.024-189.024c-5.141-11.825-16.721-19.943-30.196-19.943-3.975 0-7.785 0.706-11.311 2.001l0.228-0.073c-14.239 5.209-30.68 8.222-47.824 8.222-8.039 0-15.924-0.662-23.602-1.936l0.834 0.114-53.28 53.408c22.376 8.992 48.318 14.208 75.478 14.208 0.094 0 0.187 0 0.281 0h-0.015c14.243-0.002 28.154-1.423 41.599-4.13l-1.343 0.226 69.92 162.816c11.999 27.608 39.032 46.563 70.492 46.563 21.221 0 40.428-8.625 54.306-22.561l0.003-0.003 173.312-173.568c13.867-13.893 22.443-33.072 22.443-54.254 0-31.442-18.895-58.472-45.95-70.353l-0.493-0.193-162.816-69.76c2.497-12.107 3.927-26.021 3.927-40.27 0-27.238-5.224-53.256-14.725-77.106l0.495 1.407zM200.224 736l583.29-583.29-40.232-40.232-583.29 583.29 40.232 40.232z" />
<glyph unicode="&#xe9df;" glyph-name="ic-unview" d="M506.208 160c-0.078 0-0.17 0-0.261 0-171.733 0-314.723 123.059-345.6 285.807l-0.346 2.193c12.562 66.628 42.399 124.833 84.656 171.602l-0.272-0.306 45.44-45.44c-30.523-34.617-53.008-77.052-64.089-123.895l-0.391-1.961c30.22-129.2 144.439-223.952 280.788-223.952 40.157 0 78.395 8.219 113.122 23.066l-1.878-0.714 48.352-48.288c-46.061-24.022-100.594-38.114-158.419-38.114-0.387 0-0.774 0.001-1.161 0.002h0.059zM768.128 276.704v0l-45.312 45.312c30.502 34.648 52.958 77.119 63.995 123.995l0.389 1.957c-30.248 129.164-144.448 223.879-280.771 223.879-40.090 0-78.268-8.192-112.949-22.992l1.88 0.713-48.576 48.512c46.345 24 101.17 38.073 159.282 38.073 171.817 0 314.901-123.024 345.968-285.791l0.35-2.202c-12.493-66.666-42.293-124.921-84.531-171.734l0.275 0.31zM506.336 304c-0.044 0-0.096 0-0.148 0-79.529 0-144 64.471-144 144 0 16.456 2.76 32.267 7.843 46.996l-0.304-1.012 57.248-57.248c5.164-35.229 32.675-62.74 67.469-67.852l0.435-0.052 57.28-57.248c-13.703-4.796-29.502-7.571-45.946-7.584h-0.006zM642.784 402.048v0l-57.376 57.28c-5.164 35.229-32.675 62.74-67.469 67.852l-0.435 0.052-57.28 57.248c13.698 4.765 29.486 7.517 45.917 7.517 79.529 0 144-64.471 144-144 0-16.431-2.752-32.22-7.82-46.929l0.303 1.012zM237.248 768l576-576-45.248-45.248-576 576z" />
<glyph unicode="&#xe9e0;" glyph-name="ic-view" d="M512.019 736c172.544 0 316.096-124.16 346.208-288-30.080-163.84-173.664-288-346.208-288s-316.095 124.16-346.207 288c30.080 163.84 173.663 288 346.207 288zM512.019 224c65.264 0.013 128.589 22.182 179.613 62.874 51.024 40.694 86.72 97.501 101.251 161.126-14.582 63.574-50.304 120.32-101.322 160.96-51.018 40.638-114.317 62.767-179.542 62.767s-128.522-22.129-179.539-62.767c-51.018-40.64-86.739-97.386-101.324-160.96 14.531-63.626 50.229-120.432 101.253-161.126 51.024-40.691 114.349-62.861 179.61-62.874zM512.019 304c-38.189 0-74.816 15.171-101.821 42.176-27.008 27.005-42.179 63.632-42.179 101.824s15.171 74.819 42.179 101.824c27.005 27.005 63.632 42.176 101.821 42.176 38.192 0 74.819-15.171 101.824-42.176s42.176-63.632 42.176-101.824c0-38.192-15.171-74.819-42.176-101.824s-63.632-42.176-101.824-42.176zM512.019 368c21.219 0 41.568 8.429 56.57 23.43 15.002 15.005 23.43 35.354 23.43 56.57s-8.429 41.565-23.43 56.57c-15.002 15.002-35.35 23.43-56.57 23.43-21.216 0-41.565-8.429-56.566-23.43-15.005-15.005-23.434-35.354-23.434-56.57s8.429-41.565 23.434-56.57c15.002-15.002 35.35-23.43 56.566-23.43z" />
<glyph unicode="&#xe9e1;" d="M824.982 608h-120.96v47.679l13.44-9.6 37.12 51.84-242.56 173.44-242.56-173.44 37.12-51.84 13.44 9.6v-47.679h-120.96l-48-192h40.96v-256h640v256h40.96l-48 192zM384.022 701.119l128 91.52 128-91.52-0.022-221.119h-255.978l-0.022 64h256.022l-0.010 64h-256.013l0.022 93.119zM248.982 544h135.018l0.022-64h-151.040l16 64zM768.022 224h-512v192h512v-192zM640 480l0.022 64h135.040l16-64h-151.062z" />
<glyph unicode="&#xe9e2;" d="M384 352h-64v-64h64v64z" />
<glyph unicode="&#xe9e3;" d="M704 352h-64v-64h64v64z" />
<glyph unicode="&#xe9e4;" d="M576 352h-128v-128h128v128z" />
<glyph unicode="&#xe9e5;" d="M824.982 608h-120.96v47.679l13.44-9.6 37.12 51.84-242.56 173.44-242.56-173.44 37.12-51.84 13.44 9.6v-47.679h-120.96l-48-192h40.96v-256h640v256h40.96l-48 192zM384.022 701.119l128 91.52 128-91.52-0.022-221.119h-255.978l-0.022 64h256.022l-0.010 64h-256.013l0.022 93.119zM248.982 544h135.018l0.022-64h-151.040l16 64zM768.022 224h-512v192h512v-192zM640 480l0.022 64h135.040l16-64h-151.062z" />
<glyph unicode="&#xe9e6;" d="M384 352h-64v-64h64v64z" />
<glyph unicode="&#xe9e7;" d="M704 352h-64v-64h64v64z" />
<glyph unicode="&#xe9e8;" d="M576 352h-128v-128h128v128z" />
<glyph unicode="&#xe9e9;" glyph-name="ic-villa" d="M824.982 608h-120.96v47.679l13.44-9.6 37.12 51.84-242.56 173.44-242.56-173.44 37.12-51.84 13.44 9.6v-47.679h-120.96l-48-192h40.96v-256h640v256h40.96l-48 192zM384.022 701.119l128 91.52 128-91.52-0.022-221.119h-255.978l-0.022 64h256.022l-0.010 64h-256.013l0.022 93.119zM248.982 544h135.018l0.022-64h-151.040l16 64zM768.022 224h-512v192h512v-192zM640 480l0.022 64h135.040l16-64h-151.062zM384 352h-64v-64h64v64zM704 352h-64v-64h64v64zM576 352h-128v-128h128v128z" />
<glyph unicode="&#xe9ea;" d="M512 800l-352-104.32v-599.68h704v599.68l-352 104.32zM672 160h-320v128h320v-128zM672 352h-320v64h320v-64zM800 160h-64v320h-448v-320h-64v384h576v-384zM800 608h-576v40.32l288 87.68 288-86.4v-41.6z" />
<glyph unicode="&#xe9eb;" d="M672 608h-320v32l160 32 160-32v-32z" />
<glyph unicode="&#xe9ec;" d="M800 384h-64v-128h64v128z" />
<glyph unicode="&#xe9ed;" d="M512 800l-352-104.32v-599.68h704v599.68l-352 104.32zM672 160h-320v128h320v-128zM672 352h-320v64h320v-64zM800 160h-64v320h-448v-320h-64v384h576v-384zM800 608h-576v40.32l288 87.68 288-86.4v-41.6z" />
<glyph unicode="&#xe9ee;" d="M672 608h-320v32l160 32 160-32v-32z" />
<glyph unicode="&#xe9ef;" d="M800 384h-64v-128h64v128z" />
<glyph unicode="&#xe9f0;" glyph-name="ic-warehouse" d="M512 800l-352-104.32v-599.68h704v599.68l-352 104.32zM672 160h-320v128h320v-128zM672 352h-320v64h320v-64zM800 160h-64v320h-448v-320h-64v384h576v-384zM800 608h-576v40.32l288 87.68 288-86.4v-41.6zM672 608h-320v32l160 32 160-32v-32zM800 384h-64v-128h64v128z" />
<glyph unicode="&#xe9f1;" glyph-name="ic-whatsapp" d="M657.898 402.634c-1.184 0.57-45.51 22.397-53.386 25.232-3.216 1.155-6.662 2.282-10.326 2.282-5.984 0-11.011-2.982-14.928-8.842-4.429-6.582-17.83-22.25-21.974-26.931-0.541-0.618-1.277-1.354-1.718-1.354-0.397 0-7.258 2.822-9.334 3.725-47.549 20.656-83.638 70.323-88.589 78.701-0.707 1.203-0.736 1.75-0.742 1.75 0.173 0.637 1.773 2.24 2.598 3.066 2.413 2.39 5.030 5.539 7.562 8.586 1.197 1.443 2.397 2.886 3.574 4.25 3.674 4.272 5.309 7.587 7.203 11.43l0.992 1.994c4.627 9.194 0.675 16.95-0.602 19.456-1.050 2.096-19.763 47.267-21.754 52.013-4.784 11.45-11.107 16.784-19.894 16.784-0.816 0 0 0-3.421-0.144-4.163-0.176-26.832-3.162-36.858-9.482-10.63-6.701-28.614-28.064-28.614-65.632 0-33.814 21.459-65.741 30.672-77.882 0.227-0.307 0.65-0.928 1.258-1.821 35.283-51.526 79.267-89.712 123.853-107.523 42.925-17.146 63.251-19.13 74.81-19.13 0 0 0 0 0 0 4.858 0 8.742 0.381 12.173 0.72l2.176 0.208c14.829 1.312 47.414 18.198 54.829 38.797 5.837 16.227 7.379 33.952 3.494 40.387-2.662 4.374-7.248 6.573-13.053 9.36zM517.395 752c-164.662 0-298.629-132.96-298.629-296.387 0-52.858 14.146-104.598 40.943-149.882l-51.291-151.299c-0.955-2.822-0.245-5.942 1.842-8.064 1.506-1.539 3.549-2.368 5.636-2.368 0.799 0 1.605 0.122 2.39 0.371l157.765 50.131c43.171-23.066 91.965-35.242 141.347-35.242 164.65 0 298.602 132.944 298.602 296.352 0 163.427-133.952 296.387-298.605 296.387zM517.395 220.998c-46.464 0-91.472 13.418-130.157 38.803-1.302 0.854-2.813 1.293-4.333 1.293-0.803 0-1.61-0.122-2.39-0.371l-79.032-25.12 25.512 75.267c0.826 2.435 0.413 5.123-1.107 7.2-29.46 40.253-45.033 87.814-45.033 137.542 0 129.386 106.111 234.648 236.54 234.648 130.413 0 236.512-105.262 236.512-234.648 0.003-129.366-106.096-234.614-236.512-234.614z" />
<glyph unicode="&#xe9f2;" glyph-name="ic-zero" d="M512 64c-75.949 0-150.189 22.522-213.339 64.717-63.148 42.192-112.367 102.166-141.431 172.333s-36.668 147.376-21.852 221.866c14.817 74.49 51.389 142.91 105.092 196.614s122.124 90.276 196.614 105.092c74.49 14.817 151.699 7.212 221.866-21.852s130.141-78.282 172.333-141.431c42.195-63.15 64.717-137.39 64.717-213.339 0-101.843-40.458-199.514-112.47-271.53-72.016-72.013-169.686-112.47-271.53-112.47zM512 762.182c-62.141 0-122.883-18.427-174.55-52.949s-91.936-83.591-115.716-140.999c-23.78-57.411-30.002-120.582-17.879-181.526 12.123-60.947 42.045-116.928 85.985-160.867s99.92-73.862 160.867-85.984c60.944-12.125 124.115-5.901 181.526 17.878 57.408 23.779 106.477 64.048 140.998 115.715 34.525 51.667 52.95 112.41 52.95 174.55 0 83.325-33.101 163.238-92.022 222.16s-138.835 92.022-222.16 92.022zM458.499 477.232v-48.461c0-21.024-2.186-39.165-6.563-54.422-4.374-15.13-10.685-27.565-18.938-37.309-8.125-9.613-17.811-16.73-29.062-21.344-11.248-4.618-23.747-6.922-37.498-6.922-11.002 0-21.251 1.408-30.752 4.227-9.498 2.95-18.061 7.501-25.686 13.654-7.5 6.154-14 13.91-19.5 23.27-5.375 9.485-9.5 20.768-12.375 33.846-2.875 13.075-4.313 28.077-4.313 44.998v48.461c0 21.027 2.188 39.040 6.562 54.038 4.5 15.13 10.813 27.501 18.938 37.117 8.25 9.616 18 16.666 29.251 21.155 11.248 4.614 23.75 6.922 37.501 6.922 10.998 0 21.187-1.475 30.56-4.422 9.501-2.822 18.064-7.245 25.69-13.27 7.622-6.026 14.125-13.782 19.498-23.267 5.376-9.36 9.501-20.579 12.378-33.654 2.874-12.95 4.31-27.821 4.31-44.618zM404.314 421.466v63.267c0 10.128-0.563 18.976-1.69 26.538-0.998 7.565-2.563 13.974-4.688 19.232-2.125 5.386-4.749 9.744-7.872 13.078-3.126 3.331-6.688 5.766-10.688 7.306s-8.438 2.307-13.312 2.307c-6.128 0-11.565-1.216-16.314-3.651-4.624-2.438-8.563-6.349-11.814-11.731-3.248-5.258-5.747-12.307-7.498-21.155-1.626-8.717-2.438-19.36-2.438-31.923v-63.267c0-10.131 0.499-19.040 1.501-26.733 1.123-7.693 2.749-14.294 4.874-19.808 2.25-5.382 4.877-9.808 7.875-13.267 3.126-3.334 6.688-5.77 10.688-7.309 4.125-1.539 8.624-2.307 13.501-2.307 6 0 11.312 1.216 15.936 3.654 4.752 2.563 8.752 6.538 12 11.923 3.376 5.51 5.875 12.691 7.501 21.536 1.626 8.848 2.438 19.616 2.438 32.31zM480.099 523.965v14.806c0 10.64 2.25 20.32 6.752 29.040 4.499 8.717 11.123 15.706 19.875 20.96 8.749 5.258 19.501 7.885 32.246 7.885 13.126 0 24.064-2.627 32.813-7.885 8.877-5.254 15.501-12.243 19.875-20.96 4.499-8.72 6.752-18.4 6.752-29.040v-14.806c0-10.384-2.253-19.936-6.752-28.656-4.374-8.717-10.938-15.702-19.686-20.96-8.752-5.258-19.562-7.885-32.435-7.885-13.002 0-23.939 2.627-32.813 7.885-8.752 5.258-15.376 12.243-19.875 20.96-4.502 8.72-6.752 18.272-6.752 28.656zM515.914 538.771v-14.806c0-4.486 0.81-8.784 2.435-12.886 1.75-3.974 4.374-7.242 7.875-9.808 3.626-2.435 8-3.651 13.126-3.651 5.373 0 9.75 1.216 13.123 3.651 3.376 2.566 5.875 5.834 7.501 9.808 1.626 4.102 2.438 8.4 2.438 12.886v14.806c0 4.746-0.877 9.104-2.627 13.078-1.622 4.102-4.186 7.37-7.686 9.808-3.373 2.563-7.747 3.846-13.126 3.846-4.998 0-9.248-1.283-12.749-3.846-3.501-2.438-6.125-5.706-7.875-9.808-1.626-3.974-2.435-8.333-2.435-13.078zM610.598 366.464v14.806c0 10.515 2.25 20.128 6.752 28.848 4.627 8.717 11.312 15.706 20.064 20.96 8.874 5.258 19.747 7.885 32.624 7.885 12.998 0 23.875-2.627 32.624-7.885 8.749-5.254 15.376-12.243 19.875-20.96 4.499-8.72 6.749-18.333 6.749-28.848v-14.806c0-10.512-2.25-20.128-6.749-28.848-4.374-8.714-10.938-15.702-19.69-20.96-8.749-5.258-19.562-7.882-32.435-7.882-13.002 0-23.939 2.624-32.813 7.882-8.877 5.258-15.622 12.246-20.25 20.96-4.502 8.72-6.752 18.336-6.752 28.848zM646.598 381.27v-14.806c0-4.614 1.002-8.976 3.002-13.078 2-4.099 4.749-7.37 8.25-9.808 3.626-2.432 7.814-3.651 12.563-3.651 6 0 10.688 1.219 14.061 3.651 3.376 2.438 5.69 5.709 6.941 9.808 1.373 4.102 2.061 8.464 2.061 13.078v14.806c0 4.618-0.874 8.912-2.627 12.886-1.747 4.102-4.371 7.373-7.875 9.808-3.373 2.563-7.686 3.846-12.934 3.846-5.251 0-9.626-1.283-13.126-3.846-3.373-2.435-5.936-5.706-7.686-9.808-1.75-3.974-2.627-8.269-2.627-12.886zM683.35 552.618l-133.312-218.845-26.253 14.23 133.315 218.845 26.25-14.23z" />
</font>
</defs>
</svg>
